BitTorrentTracker PerecTracker.org
BitTorrentTracker PerecTracker.org
    
Регистрация  ·  Вход
 
 · 
Забыли пароль?

  • Место под солнцем / En plats i solen (Петер Флинт / Peter Flinth) [2012, Швеция, триллер, драма, криминал, BDRemux 1080i] MVO + Original (Swe) + Sub (Swe, Eng, Fin, Nor)

    Ответить на тему
     
    Автор Сообщение

    Light

    Создавать темы 11-Май-2016 00:03

           

    [Цитировать]

    Место под солнцем / En plats i solen

    -
    -Страна: Швеция
    Студия: Yellow Bird Films, Degeto Film, TV4 Nordisk Television
    Жанр: триллер, драма, криминал
    Год выпуска: 2012
    Продолжительность: 01:29:17--Перевод: Профессиональный (многоголосый закадровый)
    Cубтитры: шведские (forced, SDH), английские, финские, норвежские
    Оригинальная аудиодорожка: шведский--Режиссер: Петер Флинт / Peter Flinth
    В ролях: Малин Крепин, Бьёрн Чьелльман, Лейф Андре, Кайса Эрнст, Эрик Йоханссон, Ричард Ульфзэтер, Эльвира Францен, Эдвин Ридинг, Ханна Альстрём, Магнус Креппер--Описание: Из редакции шведского таблоида Kvallspressen за Полярный круг или на горячие пляжи и ночные клубы на юге Испании — куда только не приводят криминального репортера Аннику Бенгтзон ее расследования…-- | | Сэмпл--Тип релиза: BDRemux 1080i [En plats i solen 2012 1080p Blu-ray AVC DTS-HD MA 5.1-THECAVE]
    Контейнер: MKV
    Видео: MPEG-4 AVC / 27334 kbps / 1920x1080 / 25 fps / 16:9 / High Profile 4.1
    Аудио 1: Russian AC3 / 2.0 / 48 kHz / 192 kbps / 16 bits |MVO|
    Аудио 2: Swedish DTS-HD Master Audio / 5.1 / 48 kHz / 3741 kbps / 24 bits (DTS Core: 5.1 / 48 kHz / 1509 kbps / 24 bits / DN -4dB) |original|
    Формат субтитров: softsub [SRT]

    MediaInfo

    Общее
    Уникальный идентификатор                 : 213544361053830077795690049203060259155 (0xA0A725DF73C811F6B26B7475299EB953)
    Полное имя                               : G:\HD\Место под солнцем.2012.Blu-Ray.Remux.(1080i).mkv
    Формат                                   : Matroska
    Версия формата                           : Version 4 / Version 2
    Размер файла                             : 19,5 Гбайт
    Продолжительность                        : 1 ч. 29 м.
    Режим общего битрейта                    : Переменный
    Общий поток                              : 31,3 Мбит/сек
    Дата кодирования                         : UTC 2016-05-08 13:36:36
    Программа кодирования                    : mkvmerge v9.1.0 ('Little Earthquakes') 64bit
    Библиотека кодирования                   : libebml v1.3.3 + libmatroska v1.4.4
    Attachments                              : poster.jpg
    Видео
    Идентификатор                            : 1
    Формат                                   : AVC
    Формат/Информация                        : Advanced Video Codec
    Профиль формата                          : High@L4.1
    Параметр CABAC формата                   : Да
    Параметр ReFrames формата                : 3 кадра
    Параметр GOP формата                     : M=3, N=12
    Идентификатор кодека                     : V_MPEG4/ISO/AVC
    Продолжительность                        : 1 ч. 29 м.
    Вид битрейта                             : Переменный
    Битрейт                                  : 27,3 Мбит/сек
    Максимальный битрейт                     : 35,0 Мбит/сек
    Ширина                                   : 1920 пикселей
    Высота                                   : 1080 пикселей
    Соотношение сторон                       : 16:9
    Режим частоты кадров                     : Переменный
    Частота кадров                           : 50,000 кадров/сек
    Частота кадров в оригинале               : 25,000 кадров/сек
    Стандарт вещания                         : NTSC
    Цветовое пространство                    : YUV
    Субдискретизация насыщенности            : 4:2:0
    Битовая глубина                          : 8 бит
    Тип развёртки                            : Чересстрочная
    Метод сохранения типа развёртки          : Раздельные поля
    Порядок развёртки                        : Верхнее поле первое
    Бит/(Пиксели*Кадры)                      : 0.264
    Размер потока                            : 17,0 Гбайт (87%)
    Default                                  : Да
    Forced                                   : Нет
    Цветовой диапазон                        : Limited
    Основные цвета                           : BT.709
    Характеристики трансфера                 : BT.709
    Коэффициенты матрицы                     : BT.709
    Аудио #1
    Идентификатор                            : 2
    Формат                                   : AC-3
    Формат/Информация                        : Audio Coding 3
    Расширение режима                        : CM (complete main)
    Параметр Endianness формата              : Big
    Идентификатор кодека                     : A_AC3
    Продолжительность                        : 1 ч. 29 м.
    Вид битрейта                             : Постоянный
    Битрейт                                  : 192 Кбит/сек
    Каналы                                   : 2 канала
    Расположение каналов                     : Front: L R
    Частота                                  : 48,0 КГц
    Частота кадров                           : 31,250 кадров/сек (1536 spf)
    Метод сжатия                             : С потерями
    Размер потока                            : 123 Мбайт (1%)
    Заголовок                                : MVO
    Язык                                     : Russian
    Default                                  : Да
    Forced                                   : Нет
    Аудио #2
    Идентификатор                            : 3
    Формат                                   : DTS
    Формат/Информация                        : Digital Theater Systems
    Профиль формата                          : MA / Core
    Режим                                    : 16
    Параметр Endianness формата              : Big
    Идентификатор кодека                     : A_DTS
    Продолжительность                        : 1 ч. 29 м.
    Вид битрейта                             : Переменный / Постоянный
    Битрейт                                  : 3741 Кбит/сек / 1509 Кбит/сек
    Каналы                                   : 6 каналов
    Расположение каналов                     : Front: L C R, Side: L R, LFE
    Частота                                  : 48,0 КГц
    Частота кадров                           : 93,750 кадра/сек (512 spf)
    Битовая глубина                          : 24 бит
    Метод сжатия                             : Без потерь / Lossy
    Размер потока                            : 2,33 Гбайт (12%)
    Язык                                     : Swedish
    Default                                  : Нет
    Forced                                   : Нет
    Текст #1
    Идентификатор                            : 4
    Формат                                   : UTF-8
    Идентификатор кодека                     : S_TEXT/UTF8
    Идентификатор кодека/Информация          : UTF-8 Plain Text
    Продолжительность                        : 1 ч. 22 м.
    Битрейт                                  : 8 бит/сек
    Count of elements                        : 151
    Размер потока                            : 4,87 Кбайт (0%)
    Заголовок                                : forced
    Язык                                     : Swedish
    Default                                  : Нет
    Forced                                   : Нет
    Текст #2
    Идентификатор                            : 5
    Формат                                   : UTF-8
    Идентификатор кодека                     : S_TEXT/UTF8
    Идентификатор кодека/Информация          : UTF-8 Plain Text
    Продолжительность                        : 1 ч. 27 м.
    Битрейт                                  : 56 бит/сек
    Count of elements                        : 836
    Размер потока                            : 36,4 Кбайт (0%)
    Заголовок                                : SDH
    Язык                                     : Swedish
    Default                                  : Нет
    Forced                                   : Нет
    Текст #3
    Идентификатор                            : 6
    Формат                                   : UTF-8
    Идентификатор кодека                     : S_TEXT/UTF8
    Идентификатор кодека/Информация          : UTF-8 Plain Text
    Продолжительность                        : 1 ч. 26 м.
    Битрейт                                  : 48 бит/сек
    Count of elements                        : 752
    Размер потока                            : 30,8 Кбайт (0%)
    Язык                                     : English
    Default                                  : Нет
    Forced                                   : Нет
    Текст #4
    Идентификатор                            : 7
    Формат                                   : UTF-8
    Идентификатор кодека                     : S_TEXT/UTF8
    Идентификатор кодека/Информация          : UTF-8 Plain Text
    Продолжительность                        : 1 ч. 28 м.
    Битрейт                                  : 54 бит/сек
    Count of elements                        : 835
    Размер потока                            : 35,7 Кбайт (0%)
    Язык                                     : Finnish
    Default                                  : Нет
    Forced                                   : Нет
    Текст #5
    Идентификатор                            : 8
    Формат                                   : UTF-8
    Идентификатор кодека                     : S_TEXT/UTF8
    Идентификатор кодека/Информация          : UTF-8 Plain Text
    Продолжительность                        : 1 ч. 28 м.
    Битрейт                                  : 54 бит/сек
    Count of elements                        : 835
    Размер потока                            : 35,5 Кбайт (0%)
    Язык                                     : Norwegian
    Default                                  : Нет
    Forced                                   : Нет
    Меню
    00:00:00.000                             : :Chapter 01
    00:10:00.760                             : :Chapter 02
    00:20:00.000                             : :Chapter 03
    00:29:42.680                             : :Chapter 04
    00:40:00.160                             : :Chapter 05
    00:50:00.000                             : :Chapter 06
    01:00:00.000                             : :Chapter 07
    01:10:00.000                             : :Chapter 08
    01:20:00.000                             : :Chapter 09
    01:27:15.000                             : :Chapter 10

    Скриншоты


    Дополнительно
    Цитата:
    Цитата:

    За русскую дорожку и субтитры спасибо HDClub и HPotter
    Скачать .torrent

    Скачать торрент-файл бесплатно и на максимальной скорости!

    Как скачивать? · Что такое торрент? · Рейтинг и ограничения

    !ВНИМАНИЕ!
    Сайт не распространяет и не хранит электронные версии произведений, а занимается лишь лишь предоставлением доступа к создаваемому пользователями каталогу ссылок на торрент-файлы, которые содержат только списки хеш-сумм, убедительная просьба с жалобами обращаться напрямую к пользователю. Файлы для обмена на трекере предоставлены пользователями сайта, и администрация не несёт ответственности за их содержание. Просьба не заливать файлы, защищенные авторскими правами, а также файлы нелегального содержания!


    _________________
    [Профиль] [ЛС]
    Показать сообщения:    
    Ответить на тему

    Текущее время: Сегодня, в 03:07

    Часовой пояс: GMT + 2



    Вы не можете начинать темы
    Вы не можете отвечать на сообщения
    Вы не можете редактировать свои сообщения
    Вы не можете удалять свои сообщения
    Вы не можете голосовать в опросах
    Вы не можете прикреплять файлы к сообщениям
    Вы не можете скачивать файлы