BitTorrentTracker PerecTracker.org
BitTorrentTracker PerecTracker.org
    
Регистрация  ·  Вход
 
 · 
Забыли пароль?

  • Порок / Frailty (Билл Пэкстон / Bill Paxton) [2001, США, Германия, Италия, триллер, драма, криминал, BDRip 720p] 2x MVO (Videogram, CP-Digital) + DVO (П.Гланц и И.Королева) + AVO (Живов) + Original Eng + Sub (Rus, Eng)

    Ответить на тему
     
    Автор Сообщение

    Light

    Создавать темы 11-Май-2016 00:03

           

    [Цитировать]

    Порок / Frailty-Год выпуска: 2001
    Страна: США, Германия, Италия / Lionsgate
    Жанр: триллер, драма, криминал
    Продолжительность: 01:39:45
    Перевод: Профессиональный (многоголосый, закадровый) Videogram
    + Профессиональный (многоголосый, закадровый) CP Digital
    + Профессиональный (двухголосый, закадровый) П.Гланц и И.Королева
    + Авторский одноголосый Ю.Живов
    Оригинальная звуковая дорожка: English
    Субтитры: Russian, English-Режиссер: Билл Пэкстон / Bill Paxton
    В ролях: Билл Пэкстон (Dad Meiks), Мэттью МакКонахи ('Fenton Meiks' / Adam Meiks), Пауэрс Бут (FBI Agent Wesley Doyle), Мэтью О’Лири (Young Fenton), Джереми Самптер (Young Adam), Люк Аскью (Sheriff Smalls), Levi Kreis (Fenton Meiks), Дерк Читвуд (Agent Griffin Hull), Мисси Крайдер (Becky Meiks), Алан Дэвидсон (Brad White), Синтия Эттинджер (Cynthia Harbridge), Винсент Чейз (Edward March)
    О фильме: Агент ФБР Уэсли Дойл возглавляет следствие по делу техасского серийного убийцы, известного как «Рука Божия». Однажды ночью к Дойлу пришел молодой человек по имени Фентон Микс и заявил, что хорошо знает убийцу. Это его младший брат Эдам. Но все его преступления — лишь небольшая часть длинной и сложной истории.
    Она началась, когда Фентон и Эдам были детьми. После смерти их матери отец стал утверждать, что ему явился ангел и велел убивать «демонов» — нормальных с виду людей, несущих миру зло.
    Эдам с восторгом воспринял откровения отца и поклялся вместе с ним выполнить «божественную» миссию. Фентон попытался отговорить брата, но понял, что злодейство и невинность могут быть совсем не тем, чем кажутся…-Релиз:
    Источник: Frailty 2001 BD-Remux 1080p AVC DTS-HD MA 5.1-HDCLUB
    Тип релиза: BDRip 720p
    Формат: MKV
    Видео: 1280x720 at 23.976 fps, x264@L4.1, crf, ~8736 kbps avg
    Аудио #01: Russian: 48 kHz/24-bit, DTS, 3/2 (L,C,R,l,r) + LFE ch, ~1509.00 kbps avg |Многоголосый закадровый, Videogram|
    Аудио #02: Russian: 48 kHz/16-bit, AC3, 3/2 (L,C,R,l,r) + LFE ch, ~448.00 kbps avg |Многоголосый закадровый, CP Digital|
    Аудио #03: Russian: 48 kHz/24-bit, DTS, 3/2 (L,C,R,l,r) + LFE ch, ~1509.00 kbps avg |Двухголосый закадровый, П.Гланц и И.Королёва|
    Аудио #04: Russian: 48 kHz/24-bit, DTS, 3/2 (L,C,R,l,r) + LFE ch, ~1509.00 kbps avg |Одноголосый закадровый, Ю.Живов|
    Аудио #05: English: 48 kHz/16-bit, DTS, 3/2 (L,C,R,l,r) + LFE ch, ~1509.00 kbps avg
    Семпл-

    Source vs Encode






    -

    mInfo

    Format : Matroska
    Format version : Version 2
    File size : 10.6 GiB
    Duration : 1h 39mn
    Overall bit rate : 15.2 Mbps
    Movie name : Порок / Frailty (2001) - Release for HDCLUB
    Encoded date : UTC 2016-04-26 09:34:38
    Writing application : mkvmerge v5.8.0 ('No Sleep / Pillow') built on Sep 2 2012 15:37:04
    Writing library : libebml v1.2.3 + libmatroska v1.3.0
    Video
    ID : 1
    Format : AVC
    Format/Info : Advanced Video Codec
    Format profile : High@L4.1
    Format settings, CABAC : Yes
    Format settings, ReFrames : 8 frames
    Codec ID : V_MPEG4/ISO/AVC
    Duration : 1h 39mn
    Bit rate : 8 434 Kbps
    Width : 1 280 pixels
    Height : 720 pixels
    Display aspect ratio : 16:9
    Frame rate mode : Constant
    Frame rate : 23.976 fps
    Color space : YUV
    Chroma subsampling : 4:2:0
    Bit depth : 8 bits
    Scan type : Progressive
    Bits/(Pixel*Frame) : 0.382
    Stream size : 5.88 GiB (55%)
    Title : Порок / Frailty (2001) - Release for HDCLUB
    Writing library : x264 core 148 r2692+54 69a6f49 t_mod_Custom [8-bit@all X86_64]
    Encoding settings : cabac=1 / ref=8 / deblock=1:-3:-3 / analyse=0x3:0x133 / me=umh / subme=11 / psy=1 / fade_compensate=0.00 / psy_rd=0.95:0.00 / mixed_ref=1 / me_range=24 / chroma_me=1 / trellis=2 / 8x8dct=1 / cqm=0 / deadzone=21,11 / fast_pskip=0 / chroma_qp_offset=-2 / threads=12 / lookahead_threads=3 / sliced_threads=0 / nr=0 / decimate=1 / interlaced=0 / bluray_compat=0 / constrained_intra=0 / fgo=0 / bframes=16 / b_pyramid=2 / b_adapt=2 / b_bias=0 / direct=3 / weightb=1 / open_gop=0 / weightp=2 / keyint=240 / keyint_min=23 / scenecut=40 / intra_refresh=0 / rc_lookahead=50 / rc=crf / mbtree=0 / crf=16.0000 / qcomp=0.65 / qpmin=0:0:0 / qpmax=69:69:69 / qpstep=4 / vbv_maxrate=50000 / vbv_bufsize=62500 / crf_max=0.0 / nal_hrd=none / filler=0 / ip_ratio=1.35 / pb_ratio=1.25 / aq=1:0.95 / aq-sensitivity=10.00 / aq-factor=1.00:1.00:1.00 / aq2=0 / aq3=0
    Language : English
    Default : Yes
    Forced : No
    Audio #1
    ID : 2
    Format : DTS
    Format/Info : Digital Theater Systems
    Mode : 16
    Format settings, Endianness : Big
    Codec ID : A_DTS
    Duration : 1h 39mn
    Bit rate mode : Constant
    Bit rate : 1 510 Kbps
    Channel(s) : 6 channels
    Channel positions : Front: L C R, Side: L R, LFE
    Sampling rate : 48.0 KHz
    Bit depth : 24 bits
    Compression mode : Lossy
    Stream size : 1.05 GiB (10%)
    Title : Многоголосый закадровый, Videogram
    Language : Russian
    Default : No
    Forced : No
    Audio #2
    ID : 3
    Format : AC-3
    Format/Info : Audio Coding 3
    Mode extension : CM (complete main)
    Format settings, Endianness : Big
    Codec ID : A_AC3
    Duration : 1h 39mn
    Bit rate mode : Constant
    Bit rate : 448 Kbps
    Channel(s) : 6 channels
    Channel positions : Front: L C R, Side: L R, LFE
    Sampling rate : 48.0 KHz
    Bit depth : 16 bits
    Compression mode : Lossy
    Stream size : 320 MiB (3%)
    Title : Многоголосый закадровый, CP Digital
    Language : Russian
    Default : No
    Forced : No
    Audio #3
    ID : 4
    Format : DTS
    Format/Info : Digital Theater Systems
    Mode : 16
    Format settings, Endianness : Big
    Codec ID : A_DTS
    Duration : 1h 39mn
    Bit rate mode : Constant
    Bit rate : 1 509 Kbps
    Channel(s) : 6 channels
    Channel positions : Front: L C R, Side: L R, LFE
    Sampling rate : 48.0 KHz
    Bit depth : 24 bits
    Compression mode : Lossy
    Stream size : 1.05 GiB (10%)
    Title : Двухголосый закадровый, П.Гланц и И.Королёва
    Language : Russian
    Default : No
    Forced : No
    Audio #4
    ID : 5
    Format : DTS
    Format/Info : Digital Theater Systems
    Mode : 16
    Format settings, Endianness : Big
    Codec ID : A_DTS
    Duration : 1h 39mn
    Bit rate mode : Constant
    Bit rate : 1 509 Kbps
    Channel(s) : 6 channels
    Channel positions : Front: L C R, Side: L R, LFE
    Sampling rate : 48.0 KHz
    Bit depth : 24 bits
    Compression mode : Lossy
    Stream size : 1.05 GiB (10%)
    Title : Одноголосый закадровый, Ю.Живов
    Language : Russian
    Default : Yes
    Forced : No
    Audio #5
    ID : 6
    Format : DTS
    Format/Info : Digital Theater Systems
    Mode : 16
    Format settings, Endianness : Big
    Codec ID : A_DTS
    Duration : 1h 39mn
    Bit rate mode : Constant
    Bit rate : 1 509 Kbps
    Channel(s) : 6 channels
    Channel positions : Front: L C R, Side: L R, LFE
    Sampling rate : 48.0 KHz
    Bit depth : 16 bits
    Compression mode : Lossy
    Stream size : 1.05 GiB (10%)
    Title : English
    Language : English
    Default : No
    Forced : No
    Text #1
    ID : 7
    Format : UTF-8
    Codec ID : S_TEXT/UTF8
    Codec ID/Info : UTF-8 Plain Text
    Title : Russian
    Language : Russian
    Default : No
    Forced : No
    Text #2
    ID : 8
    Format : UTF-8
    Codec ID : S_TEXT/UTF8
    Codec ID/Info : UTF-8 Plain Text
    Title : English
    Language : English
    Default : No
    Forced : No
    Menu
    00:00:00.000 : :Chapter 01
    00:05:00.000 : :Chapter 02
    00:10:00.000 : :Chapter 03
    00:15:00.000 : :Chapter 04
    00:20:00.000 : :Chapter 05
    00:25:00.000 : :Chapter 06
    00:30:00.000 : :Chapter 07
    00:35:00.000 : :Chapter 08
    00:40:00.000 : :Chapter 09
    00:45:00.000 : :Chapter 10
    00:50:00.000 : :Chapter 11
    00:55:00.000 : :Chapter 12
    01:00:00.000 : :Chapter 13
    01:05:00.000 : :Chapter 14
    01:10:00.000 : :Chapter 15
    01:15:00.000 : :Chapter 16
    01:20:00.000 : :Chapter 17
    01:25:00.000 : :Chapter 18
    01:30:00.000 : :Chapter 19
    01:35:00.000 : :Chapter 20

    -

    logfile

    raw [info]: 1280x720p 1:1 @ 24000/1001 fps (cfr)
    x264 [info]: using SAR=1/1
    x264 [info]: using cpu capabilities: MMX2 SSE2Fast SSSE3 SSE4.2 AVX XOP FMA4 LZCNT
    x264 [info]: profile High, level 4.1
    x264 [info]: frame I:818 Avg QP:12.85 size:146586
    x264 [info]: frame P:27648 Avg QP:14.07 size: 79122
    x264 [info]: frame B:115198 Avg QP:15.97 size: 36771
    x264 [info]: consecutive B-frames: 0.9% 1.0% 3.1% 15.4% 18.6% 50.9% 5.9% 3.2% 0.3% 0.3% 0.1% 0.1% 0.0% 0.0% 0.0% 0.1% 0.2%
    x264 [info]: mb I I16..4: 1.1% 91.1% 7.8%
    x264 [info]: mb P I16..4: 0.2% 30.6% 1.0% P16..4: 18.7% 28.0% 17.5% 3.2% 0.1% skip: 0.7%
    x264 [info]: mb B I16..4: 0.0% 4.4% 0.1% B16..8: 31.1% 29.3% 9.4% direct:11.5% skip:14.2% L0:43.3% L1:37.6% BI:19.1%
    x264 [info]: 8x8 transform intra:96.6% inter:47.1%
    x264 [info]: direct mvs spatial:100.0% temporal:0.0%
    x264 [info]: coded y,uvDC,uvAC intra: 99.0% 92.6% 80.4% inter: 54.5% 31.2% 6.5%
    x264 [info]: i16 v,h,dc,p: 45% 13% 10% 32%
    x264 [info]: i8 v,h,dc,ddl,ddr,vr,hd,vl,hu: 9% 7% 18% 10% 12% 11% 10% 11% 12%
    x264 [info]: i4 v,h,dc,ddl,ddr,vr,hd,vl,hu: 8% 6% 5% 11% 16% 15% 13% 13% 13%
    x264 [info]: i8c dc,h,v,p: 50% 20% 17% 13%
    x264 [info]: Weighted P-Frames: Y:98.2% UV:5.1%
    x264 [info]: ref P L0: 38.6% 8.6% 20.3% 8.7% 8.2% 5.8% 6.0% 3.5% 0.3% 0.0%
    x264 [info]: ref B L0: 76.0% 10.4% 5.6% 3.2% 2.4% 1.6% 0.7%
    x264 [info]: ref B L1: 96.3% 3.7%
    x264 [info]: kb/s:8736.25

    -
    Цитата:
    Цитата:


    • Сохранены оригинальные главы как на Blu-ray.
    • В дорожке №2 были перепутаны местами фронтальные каналы. Исправил.
    • За субтитры спасибо Elheym.
    -
    Скачать .torrent

    Скачать торрент-файл бесплатно и на максимальной скорости!

    Как скачивать? · Что такое торрент? · Рейтинг и ограничения

    !ВНИМАНИЕ!
    Сайт не распространяет и не хранит электронные версии произведений, а занимается лишь лишь предоставлением доступа к создаваемому пользователями каталогу ссылок на торрент-файлы, которые содержат только списки хеш-сумм, убедительная просьба с жалобами обращаться напрямую к пользователю. Файлы для обмена на трекере предоставлены пользователями сайта, и администрация не несёт ответственности за их содержание. Просьба не заливать файлы, защищенные авторскими правами, а также файлы нелегального содержания!


    _________________
    [Профиль] [ЛС]
    Показать сообщения:    
    Ответить на тему

    Текущее время: Сегодня, в 04:08

    Часовой пояс: GMT + 2



    Вы не можете начинать темы
    Вы не можете отвечать на сообщения
    Вы не можете редактировать свои сообщения
    Вы не можете удалять свои сообщения
    Вы не можете голосовать в опросах
    Вы не можете прикреплять файлы к сообщениям
    Вы не можете скачивать файлы