BitTorrentTracker PerecTracker.org
BitTorrentTracker PerecTracker.org
    
Регистрация  ·  Вход
 
 · 
Забыли пароль?

  • Мужской стриптиз / The Full Monty (Питер Каттанео / Peter Cattaneo) [1997, Великобритания, комедия, музыка, BDRip 1080p] DVO (Премьер Видео фильм) + DVO (Лазер Видео) + VO (Д.Есарев) + AVO (А.Карповский) + Original Eng + Sub Rus, Eng

    Ответить на тему
     
    Автор Сообщение

    Light

    Создавать темы 11-Май-2016 00:03

           

    [Цитировать]

    Мужской стриптиз / The Full Monty
    Страна: Великобритания
    Студия: Channel Four Films, Redwave Films, Twentieth Century Fox Film Corporation
    Жанр: Комедия, музыка
    Год выпуска: 1997
    Продолжительность: 01:31:30
    Перевод 1: Профессиональный (двухголосый закадровый) Премьер Видео фильм
    Перевод 2: Профессиональный (двухголосый закадровый) Лазер Видео
    Перевод 3: Одноголосый закадровый Д. Есарев
    Перевод 4: Авторский (одноголосый закадровый) А. Карповский
    Cубтитры: Русские, Английские
    Оригинальная аудиодорожка: Английский
    Режиссер: Питер Каттанео / Peter Cattaneo
    В ролях: Роберт Карлайл, Марк Эдди, Уильям Снейп, Стив Хисон, Том Уилкинсон, Пол Барбер, Хьюго Спир, Лесли Шарп, Эмили Вуф, Дирдри Костильо.
    Описание: В небольшом английском городке Шеффилд закрывается сталелитейный завод. Успех заехавшей в Шеффилд группы мужских стриптизёров рождает у одного из бывших работников завода идею организовать своё стриптиз-шоу, чтобы хоть как-то сводить концы с концами. А поскольку бывшие сталевары не отличаются ни идеальным телом, ни умением танцевать, то необходимо придумать что-то ещё для привлечения женского внимания…-Рейтинг
    -Сэмпл
    Тип релиза: BDRip 1080p
    Контейнер: MKV
    Видео: 1920x1040 (1,85:1), 23.976 fps, x264, ~13900 kbps | Encode by CtrlHD
    Аудио 1: Russian: 48 kHz, AC3, 2/0 (L,R) ch, ~192 kbps | Двухголосый закадровый, Премьер Видео фильм
    Аудио 2: Russian: 48 kHz, AC3, 2/0 (L,R) ch, ~192 kbps | Двухголосый закадровый, Лазер Видео
    Аудио 3: Russian: 48 kHz, DTS, 3/2 (L,C,R,l,r) + LFE ch, ~1509 kbps | Одноголосый закадровый, Д. Есарев
    Аудио 4: Russian: 48 kHz, DTS, 3/2 (L,C,R,l,r) + LFE ch, ~1509 kbps | Одноголосый закадровый, А. Карповский
    Субтитры: Русские, Английские
    Формат субтитров: softsub (SRT)

    Дополнительно

    Дорожки №1 и 2 с этой раздачи. Спасибо Sergunka172, Fikaloid, sera1. Работа со звуком JUSTKANT.
    Перевод Д. Есарева доступен благодаря nortonn. Работа со звуком mihaildns.
    Перевод А. Карповского осуществлен в рамках народного проекта форума E180. Все благодарности уходят товарищам Alexbeer, Larry, ZLoDAY, V(eat)All, kiruxa-k, Некрасов, ilbilb, Splinter, ZombX, SJC. Работа со звуком Stvstas.

    MediaInfo

    Общее
    Unique ID : 221452223777238331105193509479008897705 (0xA69A259B64D629AD873E25ACA3E30AA9)
    Complete name : E:\video_rutracker\The.Full.Monty.1997.1080p.BluRay.4xRus.Eng.x264.mkv
    Format : Matroska
    Format version : Version 2
    File size : 12,3 Гбайт
    Duration : 1 ч. 31 м.
    Overall bit rate : 19,2 Мбит/сек
    Movie name : The.Full.Monty.1997 igrok2012
    Encoded date : UTC 2016-05-07 12:04:37
    Writing application : mkvmerge v8.3.0 ('Over the Horizon') 64bit
    Writing library : libebml v1.3.1 + libmatroska v1.4.2
    Cover : Yes
    Attachments : cover.jpg
    Видео
    ID : 1
    Format : AVC
    Format/Info : Advanced Video Codec
    Format profile : High@L4.1
    Format settings, CABAC : Да
    Format settings, ReFrames : 4 кадра
    Codec ID : V_MPEG4/ISO/AVC
    Duration : 1 ч. 31 м.
    Bit rate : 13,9 Мбит/сек
    Width : 1920 пикселей
    Height : 1040 пикселей
    Display aspect ratio : 1,85:1
    Frame rate mode : Постоянный
    Frame rate : 23,976 (24000/1001) кадра/сек
    Color space : YUV
    Chroma subsampling : 4:2:0
    Bit depth : 8 бит
    Scan type : Прогрессивная
    Bits/(Pixel*Frame) : 0.290
    Stream size : 8,89 Гбайт (72%)
    Title : Encode by CtrlHD
    Writing library : x264 core 128 r2216kMod 198a7ea
    Encoding settings : cabac=1 / ref=4 / deblock=1:-3:-3 / analyse=0x3:0x113 / me=umh / subme=9 / psy=1 / fade_compensate=0.00 / psy_rd=1.22:0.00 / mixed_ref=1 / me_range=16 / chroma_me=1 / trellis=2 / 8x8dct=1 / cqm=0 / deadzone=21,11 / fast_pskip=0 / chroma_qp_offset=-2 / threads=6 / lookahead_threads=1 / sliced_threads=0 / nr=0 / decimate=0 / interlaced=0 / bluray_compat=0 / constrained_intra=0 / bframes=8 / b_pyramid=2 / b_adapt=2 / b_bias=0 / direct=3 / weightb=1 / open_gop=0 / weightp=2 / keyint=250 / keyint_min=23 / scenecut=40 / intra_refresh=0 / rc=crf / mbtree=0 / crf=18.0000 / qcomp=0.80 / qpmin=0 / qpmax=69 / qpstep=4 / ip_ratio=1.30 / pb_ratio=1.20 / aq=1:0.80
    Language : English
    Default : Да
    Forced : Нет
    Аудио #1
    ID : 2
    Format : AC-3
    Format/Info : Audio Coding 3
    Mode extension : CM (complete main)
    Format settings, Endianness : Big
    Codec ID : A_AC3
    Duration : 1 ч. 31 м.
    Bit rate mode : Постоянный
    Bit rate : 192 Кбит/сек
    Channel(s) : 2 канала
    Channel positions : Front: L R
    Sampling rate : 48,0 КГц
    Frame rate : 31,250 кадров/сек (1536 spf)
    Compression mode : С потерями
    Stream size : 126 Мбайт (1%)
    Title : Двухголосый закадровый, Премьер Видео фильм
    Language : Russian
    Default : Да
    Forced : Нет
    Аудио #2
    ID : 3
    Format : AC-3
    Format/Info : Audio Coding 3
    Mode extension : CM (complete main)
    Format settings, Endianness : Big
    Codec ID : A_AC3
    Duration : 1 ч. 31 м.
    Bit rate mode : Постоянный
    Bit rate : 192 Кбит/сек
    Channel(s) : 2 канала
    Channel positions : Front: L R
    Sampling rate : 48,0 КГц
    Frame rate : 31,250 кадров/сек (1536 spf)
    Compression mode : С потерями
    Stream size : 126 Мбайт (1%)
    Title : Двухголосый закадровый, Лазер Видео
    Language : Russian
    Default : Нет
    Forced : Нет
    Аудио #3
    ID : 4
    Format : DTS
    Format/Info : Digital Theater Systems
    Mode : 16
    Format settings, Endianness : Big
    Codec ID : A_DTS
    Duration : 1 ч. 31 м.
    Bit rate mode : Постоянный
    Bit rate : 1509 Кбит/сек
    Channel(s) : 6 каналов
    Channel positions : Front: L C R, Side: L R, LFE
    Sampling rate : 48,0 КГц
    Frame rate : 93,750 кадра/сек (512 spf)
    Bit depth : 24 бит
    Compression mode : С потерями
    Stream size : 988 Мбайт (8%)
    Title : Одноголосый закадровый, Д.Есарев
    Language : Russian
    Default : Нет
    Forced : Нет
    Аудио #4
    ID : 5
    Format : DTS
    Format/Info : Digital Theater Systems
    Mode : 16
    Format settings, Endianness : Big
    Codec ID : A_DTS
    Duration : 1 ч. 31 м.
    Bit rate mode : Постоянный
    Bit rate : 1509 Кбит/сек
    Channel(s) : 6 каналов
    Channel positions : Front: L C R, Side: L R, LFE
    Sampling rate : 48,0 КГц
    Frame rate : 93,750 кадра/сек (512 spf)
    Bit depth : 24 бит
    Compression mode : С потерями
    Stream size : 988 Мбайт (8%)
    Title : Одноголосый закадровый, А.Карповский
    Language : Russian
    Default : Нет
    Forced : Нет
    Аудио #5
    ID : 6
    Format : DTS
    Format/Info : Digital Theater Systems
    Mode : 16
    Format settings, Endianness : Big
    Codec ID : A_DTS
    Duration : 1 ч. 31 м.
    Bit rate mode : Постоянный
    Bit rate : 1509 Кбит/сек
    Channel(s) : 6 каналов
    Channel positions : Front: L C R, Side: L R, LFE
    Sampling rate : 48,0 КГц
    Frame rate : 93,750 кадра/сек (512 spf)
    Bit depth : 24 бит
    Compression mode : С потерями
    Stream size : 988 Мбайт (8%)
    Language : English
    Default : Нет
    Forced : Нет
    Текст #1
    ID : 7
    Format : UTF-8
    Codec ID : S_TEXT/UTF8
    Codec ID/Info : UTF-8 Plain Text
    Language : Russian
    Default : Нет
    Forced : Нет
    Текст #2
    ID : 8
    Format : UTF-8
    Codec ID : S_TEXT/UTF8
    Codec ID/Info : UTF-8 Plain Text
    Language : English
    Default : Нет
    Forced : Нет
    Меню
    00:00:00.000 : en:Chapter 1
    00:02:23.143 : en:Chapter 2
    00:04:45.659 : en:Chapter 3
    00:06:05.990 : en:Chapter 4
    00:06:55.163 : en:Chapter 5
    00:08:24.170 : en:Chapter 6
    00:08:41.895 : en:Chapter 7
    00:09:59.181 : en:Chapter 8
    00:12:24.367 : en:Chapter 9
    00:14:05.301 : en:Chapter 10
    00:17:59.702 : en:Chapter 11
    00:19:50.897 : en:Chapter 12
    00:22:34.478 : en:Chapter 13
    00:28:13.400 : en:Chapter 14
    00:30:44.217 : en:Chapter 15
    00:33:17.744 : en:Chapter 16
    00:35:37.425 : en:Chapter 17
    00:37:18.527 : en:Chapter 18
    00:39:02.757 : en:Chapter 19
    00:42:23.623 : en:Chapter 20
    00:45:47.702 : en:Chapter 21
    00:46:56.563 : en:Chapter 22
    00:49:01.563 : en:Chapter 23
    00:52:17.050 : en:Chapter 24
    00:53:48.306 : en:Chapter 25
    00:55:36.623 : en:Chapter 26
    00:57:27.485 : en:Chapter 27
    01:00:29.208 : en:Chapter 28
    01:02:42.717 : en:Chapter 29
    01:04:26.070 : en:Chapter 30
    01:08:03.829 : en:Chapter 31
    01:14:43.979 : en:Chapter 32
    01:18:29.078 : en:Chapter 33
    01:21:06.152 : en:Chapter 34
    01:24:01.411 : en:Chapter 35
    01:27:18.733 : en:Chapter 36

    Скриншоты

    Скриншоты сравнения

    MySiLU | CtrlHD

    Скачать .torrent

    Скачать торрент-файл бесплатно и на максимальной скорости!

    Как скачивать? · Что такое торрент? · Рейтинг и ограничения

    !ВНИМАНИЕ!
    Сайт не распространяет и не хранит электронные версии произведений, а занимается лишь лишь предоставлением доступа к создаваемому пользователями каталогу ссылок на торрент-файлы, которые содержат только списки хеш-сумм, убедительная просьба с жалобами обращаться напрямую к пользователю. Файлы для обмена на трекере предоставлены пользователями сайта, и администрация не несёт ответственности за их содержание. Просьба не заливать файлы, защищенные авторскими правами, а также файлы нелегального содержания!


    _________________
    [Профиль] [ЛС]
    Показать сообщения:    
    Ответить на тему

    Текущее время: Сегодня, в 10:31

    Часовой пояс: GMT + 2



    Вы не можете начинать темы
    Вы не можете отвечать на сообщения
    Вы не можете редактировать свои сообщения
    Вы не можете удалять свои сообщения
    Вы не можете голосовать в опросах
    Вы не можете прикреплять файлы к сообщениям
    Вы не можете скачивать файлы