BitTorrentTracker PerecTracker.org
BitTorrentTracker PerecTracker.org
    
Регистрация  ·  Вход
 
 · 
Забыли пароль?

  • Прайм-тайм / Prime Time (Агнета Фагерстрем-Олссон / Agneta Fagerström-Olsson) [2012, Швеция, триллер, драма, криминал, BDRemux 1080p] MVO + Original (Swe) + Sub (Rus, Swe, Eng, Fin, Nor)

    Ответить на тему
     
    Автор Сообщение

    Light

    Создавать темы 11-Май-2016 00:03

           

    [Цитировать]

    Прайм-тайм / Prime Time

    -
    -Страна: Швеция
    Студия: Yellow Bird Films, Degeto Film, TV4 Nordisk Television
    Жанр: триллер, драма, криминал
    Год выпуска: 2012
    Продолжительность: 01:33:08--Перевод: Профессиональный (многоголосый закадровый)
    Cубтитры: русские (kon2011), шведские (forced, full), английские, финские, норвежские
    Оригинальная аудиодорожка: шведский--Режиссер: Агнета Фагерстрем-Олссон / Agneta Fagerström-Olsson
    В ролях: Малин Крепин, Бьёрн Чьелльман, Лейф Андре, Кайса Эрнст, Эрик Йоханссон, Феликс Энгстрем, Кандиду Ричард Ульфзэтер, Моа Гаммель, Жозефин Борнебуш, Мария Кулле--Описание: Член Нобелевского комитета, стриптизёрша из ночного клуба, левый радикал-террорист, а теперь — знаменитая телеведущая… Журналистка Анника Бенгтссон опять опережает туповатых шведских полицейских в расследовании громких убийств.-- | | Сэмпл--Тип релиза: BDRemux 1080p [Prime Time 2012 1080p Blu-ray AVC DTS-HD MA 5.1-THECAVE]
    Контейнер: MKV
    Видео: MPEG-4 AVC / 25002 kbps / 1920x1080 / 24 fps / 16:9 / High Profile 4.1
    Аудио 1: Russian AC3 / 2.0 / 48 kHz / 192 kbps / 16 bits |MVO|
    Аудио 2: Swedish DTS-HD Master Audio / 5.1 / 48 kHz / 3575 kbps / 24 bits (DTS Core: 5.1 / 48 kHz / 1509 kbps / 24 bits / DN -4dB) |original|
    Формат субтитров: softsub [SRT]

    MediaInfo

    Общее
    Уникальный идентификатор                 : 238633291853485951082735591396433601435 (0xB38719AA09DFF0199A3C5F17BBAA239B)
    Полное имя                               : G:\HD\Прайм-тайм.2012.Blu-Ray.Remux.(1080p).mkv
    Формат                                   : Matroska
    Версия формата                           : Version 4 / Version 2
    Размер файла                             : 18,7 Гбайт
    Продолжительность                        : 1 ч. 33 м.
    Режим общего битрейта                    : Переменный
    Общий поток                              : 28,8 Мбит/сек
    Дата кодирования                         : UTC 2016-05-07 17:27:42
    Программа кодирования                    : mkvmerge v9.1.0 ('Little Earthquakes') 64bit
    Библиотека кодирования                   : libebml v1.3.3 + libmatroska v1.4.4
    Attachments                              : poster.jpg
    Видео
    Идентификатор                            : 1
    Формат                                   : AVC
    Формат/Информация                        : Advanced Video Codec
    Профиль формата                          : High@L4.1
    Параметр CABAC формата                   : Да
    Параметр ReFrames формата                : 3 кадра
    Параметр GOP формата                     : M=3, N=12
    Идентификатор кодека                     : V_MPEG4/ISO/AVC
    Продолжительность                        : 1 ч. 33 м.
    Вид битрейта                             : Переменный
    Битрейт                                  : 25,0 Мбит/сек
    Максимальный битрейт                     : 35,0 Мбит/сек
    Ширина                                   : 1920 пикселей
    Высота                                   : 1080 пикселей
    Соотношение сторон                       : 16:9
    Режим частоты кадров                     : Постоянный
    Частота кадров                           : 24,000 кадра/сек
    Стандарт вещания                         : NTSC
    Цветовое пространство                    : YUV
    Субдискретизация насыщенности            : 4:2:0
    Битовая глубина                          : 8 бит
    Тип развёртки                            : Прогрессивная
    Бит/(Пиксели*Кадры)                      : 0.502
    Размер потока                            : 16,3 Гбайт (87%)
    Default                                  : Да
    Forced                                   : Нет
    Цветовой диапазон                        : Limited
    Основные цвета                           : BT.709
    Характеристики трансфера                 : BT.709
    Коэффициенты матрицы                     : BT.709
    Аудио #1
    Идентификатор                            : 2
    Формат                                   : AC-3
    Формат/Информация                        : Audio Coding 3
    Расширение режима                        : CM (complete main)
    Параметр Endianness формата              : Big
    Идентификатор кодека                     : A_AC3
    Продолжительность                        : 1 ч. 33 м.
    Вид битрейта                             : Постоянный
    Битрейт                                  : 192 Кбит/сек
    Каналы                                   : 2 канала
    Расположение каналов                     : Front: L R
    Частота                                  : 48,0 КГц
    Частота кадров                           : 31,250 кадров/сек (1536 spf)
    Метод сжатия                             : С потерями
    Размер потока                            : 128 Мбайт (1%)
    Заголовок                                : MVO
    Язык                                     : Russian
    Default                                  : Да
    Forced                                   : Нет
    Аудио #2
    Идентификатор                            : 3
    Формат                                   : DTS
    Формат/Информация                        : Digital Theater Systems
    Профиль формата                          : MA / Core
    Режим                                    : 16
    Параметр Endianness формата              : Big
    Идентификатор кодека                     : A_DTS
    Продолжительность                        : 1 ч. 33 м.
    Вид битрейта                             : Переменный / Постоянный
    Битрейт                                  : 3575 Кбит/сек / 1509 Кбит/сек
    Каналы                                   : 6 каналов
    Расположение каналов                     : Front: L C R, Side: L R, LFE
    Частота                                  : 48,0 КГц
    Частота кадров                           : 93,750 кадра/сек (512 spf)
    Битовая глубина                          : 24 бит
    Метод сжатия                             : Без потерь / Lossy
    Размер потока                            : 2,33 Гбайт (12%)
    Язык                                     : Swedish
    Default                                  : Нет
    Forced                                   : Нет
    Текст #1
    Идентификатор                            : 4
    Формат                                   : UTF-8
    Идентификатор кодека                     : S_TEXT/UTF8
    Идентификатор кодека/Информация          : UTF-8 Plain Text
    Продолжительность                        : 1 ч. 29 м.
    Битрейт                                  : 103 бит/сек
    Count of elements                        : 1090
    Размер потока                            : 67,9 Кбайт (0%)
    Заголовок                                : kon2011
    Язык                                     : Russian
    Default                                  : Нет
    Forced                                   : Нет
    Текст #2
    Идентификатор                            : 5
    Формат                                   : UTF-8
    Идентификатор кодека                     : S_TEXT/UTF8
    Идентификатор кодека/Информация          : UTF-8 Plain Text
    Продолжительность                        : 1 ч. 2 м.
    Битрейт                                  : 0 бит/сек
    Count of elements                        : 14
    Размер потока                            : 414 байт (0%)
    Заголовок                                : forced
    Язык                                     : Swedish
    Default                                  : Нет
    Forced                                   : Нет
    Текст #3
    Идентификатор                            : 6
    Формат                                   : UTF-8
    Идентификатор кодека                     : S_TEXT/UTF8
    Идентификатор кодека/Информация          : UTF-8 Plain Text
    Продолжительность                        : 1 ч. 31 м.
    Битрейт                                  : 58 бит/сек
    Count of elements                        : 1008
    Размер потока                            : 39,4 Кбайт (0%)
    Заголовок                                : full
    Язык                                     : Swedish
    Default                                  : Нет
    Forced                                   : Нет
    Текст #4
    Идентификатор                            : 7
    Формат                                   : UTF-8
    Идентификатор кодека                     : S_TEXT/UTF8
    Идентификатор кодека/Информация          : UTF-8 Plain Text
    Продолжительность                        : 1 ч. 29 м.
    Битрейт                                  : 49 бит/сек
    Count of elements                        : 807
    Размер потока                            : 32,6 Кбайт (0%)
    Язык                                     : English
    Default                                  : Нет
    Forced                                   : Нет
    Текст #5
    Идентификатор                            : 8
    Формат                                   : UTF-8
    Идентификатор кодека                     : S_TEXT/UTF8
    Идентификатор кодека/Информация          : UTF-8 Plain Text
    Продолжительность                        : 1 ч. 30 м.
    Битрейт                                  : 56 бит/сек
    Count of elements                        : 971
    Размер потока                            : 37,2 Кбайт (0%)
    Язык                                     : Finnish
    Default                                  : Нет
    Forced                                   : Нет
    Текст #6
    Идентификатор                            : 9
    Формат                                   : UTF-8
    Идентификатор кодека                     : S_TEXT/UTF8
    Идентификатор кодека/Информация          : UTF-8 Plain Text
    Продолжительность                        : 1 ч. 30 м.
    Битрейт                                  : 57 бит/сек
    Count of elements                        : 971
    Размер потока                            : 37,9 Кбайт (0%)
    Язык                                     : Norwegian
    Default                                  : Нет
    Forced                                   : Нет
    Меню
    00:00:00.000                             : :Chapter 01
    00:09:59.750                             : :Chapter 02
    00:19:59.625                             : :Chapter 03
    00:29:59.916                             : :Chapter 04
    00:39:59.833                             : :Chapter 05
    00:49:59.541                             : :Chapter 06
    00:59:59.625                             : :Chapter 07
    01:09:59.666                             : :Chapter 08
    01:19:59.541                             : :Chapter 09
    01:29:59.666                             : :Chapter 10

    Скриншоты


    Дополнительно
    Цитата:
    Цитата:

    За русскую дорожку и субтитры спасибо HDClub и HPotter
    Скачать .torrent

    Скачать торрент-файл бесплатно и на максимальной скорости!

    Как скачивать? · Что такое торрент? · Рейтинг и ограничения

    !ВНИМАНИЕ!
    Сайт не распространяет и не хранит электронные версии произведений, а занимается лишь лишь предоставлением доступа к создаваемому пользователями каталогу ссылок на торрент-файлы, которые содержат только списки хеш-сумм, убедительная просьба с жалобами обращаться напрямую к пользователю. Файлы для обмена на трекере предоставлены пользователями сайта, и администрация не несёт ответственности за их содержание. Просьба не заливать файлы, защищенные авторскими правами, а также файлы нелегального содержания!


    _________________
    [Профиль] [ЛС]
    Показать сообщения:    
    Ответить на тему

    Текущее время: Сегодня, в 02:42

    Часовой пояс: GMT + 2



    Вы не можете начинать темы
    Вы не можете отвечать на сообщения
    Вы не можете редактировать свои сообщения
    Вы не можете удалять свои сообщения
    Вы не можете голосовать в опросах
    Вы не можете прикреплять файлы к сообщениям
    Вы не можете скачивать файлы