BitTorrentTracker PerecTracker.org
BitTorrentTracker PerecTracker.org
    
Регистрация  ·  Вход
 
 · 
Забыли пароль?

  • Аномализа / Anomalisa (Дьюк Джонсон, Чарли Кауфман / Duke Johnson, Charlie Kaufman ) [2015, США, Мультфильм, драма, мелодрама, комедия, WEB-DL, HD (720p)] DUB + Original + sub (rus, eng)

    Ответить на тему
     
    Автор Сообщение

    Flirldrerve

    Создавать темы 10-Май-2016 15:56

           

    [Цитировать]

    Аномализа / Anomalisa
    -
    6.805 / 10 7.40 / 10
    -Год выпуска: 2015
    Страна: США
    Жанр: Мультфильм, драма, мелодрама, комедия
    Продолжительность: 01:30:50
    Перевод: Дублированный (iTunes)
    Оригинальная аудиодорожка: Есть
    Cубтитры: Русские форсированные, Русские, Английские
    Возраст: Лицам достигшим 18 лет!
    Режиссёр: Дьюк Джонсон, Чарли Кауфман
    Сценарий: Чарли Кауфман
    Продюсер: Дьюк Джонсон, Чарли Кауфман, Дино Стаматопулос
    Оператор: Джо Пассарелли
    Композитор: Картер Бёруэлл
    Художник: Джон Джойс, Хай Ву, Susan Donym
    Монтаж: Гаррет Элкинс
    В ролях: Дэвид Тьюлис, Дженнифер Джейсон Ли, Том Нунен
    Бюджет: $8 000 000
    Сборы в США: $3 759 286
    Мировая премьера: 4 сентября 2015
    Релиз на DVD: 23 мая 2016, «Новый Диск»
    Релиз на Blu-Ray: 23 мая 2016, «Новый Диск»
    Описание: Майкл Стоун, автор книг по обслуживанию клиентов, страдает от неспособности контактировать с людьми. Однажды, в ходе очередной рабочей поездки, он встречает незнакомку, которая меняет его мировосприятие.-Качество исходника: WEB-DL 720p (HDClub)
    Качество: WEB-DL
    Тип: HD (720p)
    Контейнер: M4V
    Видео: H.264, 1280x532, 2.40:1, 4 066 Kbps, 23.976 fps
    Аудио 1: Русский/Дублированный (iTunes), AAC / 2.0 / 157 Kbps / 48.0 KHz
    Аудио 2: Английский/Оригинальная дорожка , AAC / 2.0 / 157 Kbps / 48.0 KHz
    Аудио 3: Русский/Дублированный (iTunes), AC-3 / 5.1 / 384 Kbps / 48.0 KHz
    Аудио 4: Английский/Оригинальная дорожка , AC-3 / 5.1 / 384 Kbps / 48.0 KHz
    Субтитры 1: Русские форсированные
    Субтитры 2: Русские полные
    Субтитры 3: Английские полные
    -

    iTunes Meta Tags

    Sort Name: Anomalisa
    XID: Apple:vendor_id:2015-707956
    contentID: 1067043927
    Copyright: ©2015 Paramount Pictures
    Screenwriters: Чарли Кауфман
    Producers: Дьюк Джонсон, Чарли Кауфман, Дино Стаматопулос
    Director: Дьюк Джонсон, Чарли Кауфман
    Cast: Дэвид Тьюлис, Дженнифер Джейсон Ли, Том Нунен, Александр Новиков, Татьяна Шитова, Андрей Гриневич
    Studio: Paramount
    Rating: 5
    Long Description: Майкл Стоун, автор книг по обслуживанию клиентов, страдает от неспособности контактировать с людьми. Однажды, в ходе очередной рабочей поездки, он встречает незнакомку, которая меняет его мировосприятие.
    Description: Майкл Стоун, автор книг по обслуживанию клиентов, страдает от неспособности контактировать с людьми. Однажды, в ходе очередной рабочей поездки, он встречает незнакомку, которая меняет его мировосприятие.
    Release Date: 2015-09-04T08:00:00Z
    Genre: Drama
    Artist: Charlie Kaufman & Duke Johnson
    Name: Anomalisa

    MediaInfo

    General
    Complete name : /Users/imac/HandBrake/Anomalisa.WEB-DL.720p.m4v
    Format : MPEG-4
    Codec ID : M4V  (M4V /M4A /mp42/isom)
    File size : 3.27 GiB
    Duration : 1h 30mn
    Overall bit rate mode : Variable
    Overall bit rate : 5 155 Kbps
    Movie name : Anomalisa
    Performer : Charlie Kaufman & Duke Johnson
    Director : Дьюк Джонсон / Чарли Кауфман
    Actor : Дэвид Тьюлис / Дженнифер Джейсон Ли / Том Нунен / Александр Новиков / Татьяна Шитова / Андрей Гриневич
    Screenplay by : Чарли Кауфман
    Producer : Дьюк Джонсон / Чарли Кауфман / Дино Стаматопулос
    Production studio : Paramount
    Genre : Drama
    ContentType : Short Film
    Description : Майкл Стоун, автор книг по обслуживанию клиентов, страдает от неспособности контактировать с людьми. Однажды, в ходе очередной рабочей поездки, он встречает незнакомку, которая меняет его мировосприятие.
    Recorded date : UTC 2015-09-04 08:00:00
    Encoded date : UTC 2016-05-10 08:11:39
    Tagged date : UTC 2016-05-10 09:35:15
    Copyright : ©2015 Paramount Pictures
    Cover : Yes
    Rating : None
    Title/Sort : Anomalisa
    LongDescription : Майкл Стоун, автор книг по обслуживанию клиентов, страдает от неспособности контактировать с людьми. Однажды, в ходе очередной рабочей поездки, он встречает незнакомку, которая меняет его мировосприятие.
    HDVideo : Yes
    AppleStoreCatalogID : 1067043927
    Vendor : Apple:vendor_id:2015-707956
    ContentRating : mpaa|R|400|
    Video #1
    ID : 1
    Format : AVC
    Format/Info : Advanced Video Codec
    Format profile : Main@L3.1
    Format settings, CABAC : No
    Format settings, ReFrames : 2 frames
    Format settings, GOP : M=2, N=90
    Codec ID : avc1
    Codec ID/Info : Advanced Video Coding
    Duration : 1h 30mn
    Bit rate : 4 066 Kbps
    Width : 1 280 pixels
    Height : 532 pixels
    Display aspect ratio : 2.40:1
    Frame rate : 23.976 fps
    Color space : YUV
    Chroma subsampling : 4:2:0
    Bit depth : 8 bits
    Scan type : Progressive
    Bits/(Pixel*Frame) : 0.249
    Stream size : 2.58 GiB (79%)
    Title : Main Program
    Language : English
    Encoded date : UTC 2016-05-10 08:11:39
    Tagged date : UTC 2016-05-10 08:13:13
    Color range : Limited
    Color primaries : BT.709
    Transfer characteristics : BT.709
    Matrix coefficients : BT.709
    Menus : 9,10
    Video #2
    ID : 10
    Format : JPEG
    Codec ID : jpeg
    Duration : 1h 30mn
    Bit rate mode : Variable
    Bit rate : 754 bps
    Width : 640 pixels
    Height : 266 pixels
    Display aspect ratio : 2.40:1
    Frame rate mode : Variable
    Frame rate : 0.003 fps
    Minimum frame rate : 0.002 fps
    Maximum frame rate : 0.004 fps
    Color space : YUV
    Chroma subsampling : 4:2:0
    Bit depth : 8 bits
    Compression mode : Lossy
    Bits/(Pixel*Frame) : 1.476
    Stream size : 430 KiB (0%)
    Title : Chapter Images
    Language : English
    Default : No
    Encoded date : UTC 2016-05-10 08:13:16
    Tagged date : UTC 2016-05-10 08:13:17
    Menu For : 1
    Audio #1
    ID : 2
    Format : AAC
    Format/Info : Advanced Audio Codec
    Format profile : LC
    Codec ID : 40
    Duration : 1h 30mn
    Bit rate mode : Variable
    Bit rate : 157 Kbps
    Maximum bit rate : 233 Kbps
    Channel(s) : 2 channels
    Channel positions : Front: L R
    Sampling rate : 48.0 KHz
    Frame rate : 46.875 fps (1024 spf)
    Compression mode : Lossy
    Stream size : 102 MiB (3%)
    Title : Russian Stereo
    Language : Russian
    Default : Yes
    Alternate group : 1
    Encoded date : UTC 2016-05-10 08:11:39
    Tagged date : UTC 2016-05-10 08:11:43
    Fallback From : 4
    Subtitles : 6,7
    Audio #2
    ID : 3
    Format : AAC
    Format/Info : Advanced Audio Codec
    Format profile : LC
    Codec ID : 40
    Duration : 1h 30mn
    Bit rate mode : Variable
    Bit rate : 157 Kbps
    Maximum bit rate : 235 Kbps
    Channel(s) : 2 channels
    Channel positions : Front: L R
    Sampling rate : 48.0 KHz
    Frame rate : 46.875 fps (1024 spf)
    Compression mode : Lossy
    Stream size : 102 MiB (3%)
    Title : English Stereo
    Language : English
    Default : No
    Alternate group : 1
    Encoded date : UTC 2016-05-10 08:11:39
    Tagged date : UTC 2016-05-10 08:11:43
    Fallback From : 5
    Audio #3
    ID : 4
    Format : AC-3
    Format/Info : Audio Coding 3
    Mode extension : CM (complete main)
    Format settings, Endianness : Big
    Codec ID : ac-3
    Duration : 1h 30mn
    Bit rate mode : Constant
    Bit rate : 384 Kbps
    Channel(s) : 6 channels
    Channel positions : Front: L C R, Side: L R, LFE
    Sampling rate : 48.0 KHz
    Frame rate : 31.250 fps (1536 spf)
    Bit depth : 16 bits
    Compression mode : Lossy
    Stream size : 249 MiB (7%)
    Title : Russian DD 5.1
    Language : Russian
    Default : Inherited From: 2
    Alternate group : 1
    Encoded date : UTC 2016-05-10 08:11:39
    Tagged date : UTC 2016-05-10 08:13:13
    Fallback To : 2
    Subtitles : 6,7
    Audio #4
    ID : 5
    Format : AC-3
    Format/Info : Audio Coding 3
    Mode extension : CM (complete main)
    Format settings, Endianness : Big
    Codec ID : ac-3
    Duration : 1h 30mn
    Bit rate mode : Constant
    Bit rate : 384 Kbps
    Channel(s) : 6 channels
    Channel positions : Front: L C R, Side: L R, LFE
    Sampling rate : 48.0 KHz
    Frame rate : 31.250 fps (1536 spf)
    Bit depth : 16 bits
    Compression mode : Lossy
    Stream size : 249 MiB (7%)
    Title : English DD 5.1
    Language : English
    Default : No
    Alternate group : 1
    Encoded date : UTC 2016-05-10 08:11:39
    Tagged date : UTC 2016-05-10 08:13:13
    Fallback To : 3
    Text #1
    ID : 6
    Format : Timed Text
    Muxing mode : sbtl
    Codec ID : tx3g
    Duration : 1h 23mn
    Bit rate mode : Variable
    Bit rate : 0 bps
    Stream size : 188 Bytes (0%)
    Title : Russian forced
    Language : Russian
    Default : Yes
    Forced : Yes
    Alternate group : 2
    Encoded date : UTC 2016-05-10 08:11:39
    Tagged date : UTC 2016-05-10 08:13:13
    Subtitles For : 2,4
    Full Alternative : 7
    Text #2
    ID : 7
    Format : Timed Text
    Muxing mode : sbtl
    Codec ID : tx3g
    Duration : 1h 23mn
    Bit rate mode : Variable
    Bit rate : 108 bps
    Stream size : 66.1 KiB (0%)
    Title : Russian full
    Language : Russian
    Default : No
    Forced : No
    Alternate group : 2
    Encoded date : UTC 2016-05-10 08:11:39
    Tagged date : UTC 2016-05-10 08:13:13
    Subtitles For : 2,4
    Forced Alternative : 6
    Text #3
    ID : 8
    Format : Timed Text
    Muxing mode : sbtl
    Codec ID : tx3g
    Duration : 1h 28mn
    Bit rate mode : Variable
    Bit rate : 83 bps
    Stream size : 53.5 KiB (0%)
    Title : English full
    Language : English
    Default : No
    Forced : No
    Alternate group : 2
    Encoded date : UTC 2016-05-10 08:11:39
    Tagged date : UTC 2016-05-10 08:13:13
    Menu #1
    00:00:00.000 : Chapter 1
    00:05:09.000 : Chapter 2
    00:12:29.000 : Chapter 3
    00:18:27.000 : Chapter 4
    00:25:26.000 : Chapter 5
    00:31:39.000 : Chapter 6
    00:37:24.000 : Chapter 7
    00:43:19.000 : Chapter 8
    00:52:19.000 : Chapter 9
    01:01:04.000 : Chapter 10
    01:07:04.000 : Chapter 11
    01:14:43.000 : Chapter 12
    01:19:27.000 : Chapter 13
    01:23:24.000 : Chapter 14
    Menu #2
    ID : 9
    Codec ID : text
    Duration : 1h 30mn
    Language : English
    Encoded date : UTC 2016-05-10 08:13:13
    Tagged date : UTC 2016-05-10 08:13:13
    Menu For : 1
    00:00:00.000 : Chapter 1
    00:05:09.000 : Chapter 2
    00:12:29.000 : Chapter 3
    00:18:27.000 : Chapter 4
    00:25:26.000 : Chapter 5
    00:31:39.000 : Chapter 6
    00:37:24.000 : Chapter 7
    00:43:19.000 : Chapter 8
    00:52:19.000 : Chapter 9
    01:01:04.000 : Chapter 10
    01:07:04.000 : Chapter 11
    01:14:43.000 : Chapter 12
    01:19:27.000 : Chapter 13
    01:23:24.000 : Chapter 14
    Bit rate mode : VBR

    Скриншоты

    -

    Релиз подготовлен для просмотра на Apple TV, iPad, iPhone, iPod Touch.
    Для просмотра данного релиза на компьютере с ОС Windows рекомендуется использовать VLC media player
    Скачать .torrent

    Скачать торрент-файл бесплатно и на максимальной скорости!

    Как скачивать? · Что такое торрент? · Рейтинг и ограничения

    !ВНИМАНИЕ!
    Сайт не распространяет и не хранит электронные версии произведений, а занимается лишь лишь предоставлением доступа к создаваемому пользователями каталогу ссылок на торрент-файлы, которые содержат только списки хеш-сумм, убедительная просьба с жалобами обращаться напрямую к пользователю. Файлы для обмена на трекере предоставлены пользователями сайта, и администрация не несёт ответственности за их содержание. Просьба не заливать файлы, защищенные авторскими правами, а также файлы нелегального содержания!


    _________________
    [Профиль] [ЛС]
    Показать сообщения:    
    Ответить на тему

    Текущее время: Сегодня, в 04:34

    Часовой пояс: GMT + 2



    Вы не можете начинать темы
    Вы не можете отвечать на сообщения
    Вы не можете редактировать свои сообщения
    Вы не можете удалять свои сообщения
    Вы не можете голосовать в опросах
    Вы не можете прикреплять файлы к сообщениям
    Вы не можете скачивать файлы