BitTorrentTracker PerecTracker.org
BitTorrentTracker PerecTracker.org
    
Регистрация  ·  Вход
 
 · 
Забыли пароль?

  • Адский смерч / Fire Twister (Джордж Эршбэймер / George Erschbamer) [2015, США, Канада, Фантастика, боевик, приключения, HDRip] MVO ([Официальный звук])

    Ответить на тему
     
    Автор Сообщение

    Light

    Создавать темы 10-Май-2016 07:45

           

    [Цитировать]

    Адский смерч / Fire Twister
    Страна: США, Канада
    Жанр: Фантастика, боевик, приключения
    Год выпуска: 2015
    Продолжительность: 01:25:51
    Перевод: Профессиональный (многоголосый закадровый) [Официальный звук]
    Cубтитры: нет
    Режиссер: Джордж Эршбэймер / George Erschbamer
    В ролях: Каспер Ван Дин, Лиза Сиара, Джон Хоукс, Леа Бейтман, Джон Мак, Джефф Кларк, Джейкоб Чэмберс, Бенжамин Истадэй, Брайан Расмуссен, Джо Регалбуто
    Описание: Скотт – бывший пожарник. Сейчас он возглавляет группу экологов– активистов. Они изготовили баннер, на котором размещена надпись-предупреждение про лесные пожары. Теперь баннер надо где-то повесить. Местом нахождения баннера команда избирает зернохранилище, то есть силос. Теперь баннер будет очень хорошо видно. Скотт взбирается на зернохранилище, чтобы повесить на нем баннер. Но он понимает, что команда оказалась далеко не в лучшем месте и в не в самое лучшее время. Ведь на силосе находится бомба, и ровно через 15 минут она взорвется. Экологи срочно делают ноги из этого места, но вскоре происходит страшный взрыв. В результате этого появляется смерч, который несет хаос и разрушения. Оказывается, что в зернохранилище содержалось некое топливо, созданное в порядке эксперимента компанией «Synco». Теперь Скотту и его команде предъявляют терроризм, а «Synco» преследует их. Экологам нужно остановить огонь прежде, чем он разрушит Лос-Анджелес.
    Сэмпл: http://sendfile.su/1232342
    Качество видео: HDRip
    Формат видео: AVI
    Видео: XviD 1.2.1, 720x400, (16:9), 23,976 fps, 2077 Кбит/сек, 8 бит
    Аудио: Русский (AC-3, 2 ch, 48,0 KHz, 192 Kbps)

    MediaInfo

    Общее
    Полное имя : F:\Видеофильмы\В и д е о\Адский смерч (боевик,приключения,Каспер Ван Дин, 2015г).avi
    Формат : AVI
    Формат/Информация : Audio Video Interleave
    Размер файла : 1,37 Гбайт
    Продолжительность : 1 ч. 25 м.
    Общий поток : 2278 Кбит/сек
    Программа кодирования : VirtualDubMod 1.5.10.2 (build 2540/release)
    Библиотека кодирования : VirtualDubMod build 2540/release
    Видео
    Идентификатор : 0
    Формат : MPEG-4 Visual
    Профиль формата : Advanced Simple@L5
    Параметр BVOP формата : 2
    Параметр QPel формата : Нет
    Параметр GMC формата : Без точки перехода
    Параметр матрицы формата : Default (MPEG)
    Идентификатор кодека : XVID
    Идентификатор кодека/Подсказка : XviD
    Продолжительность : 1 ч. 25 м.
    Битрейт : 2077 Кбит/сек
    Ширина : 720 пикселей
    Высота : 400 пикселей
    Соотношение сторон : 16:9
    Частота кадров : 23,976 (23976/1000) кадра/сек
    Цветовое пространство : YUV
    Субдискретизация насыщенности : 4:2:0
    Битовая глубина : 8 бит
    Тип развёртки : Прогрессивная
    Метод сжатия : С потерями
    Бит/(Пиксели*Кадры) : 0.301
    Размер потока : 1,25 Гбайт (91%)
    Библиотека кодирования : XviD 1.2.1 (UTC 2008-12-04)
    Аудио
    Идентификатор : 1
    Формат : AC-3
    Формат/Информация : Audio Coding 3
    Расширение режима : CM (complete main)
    Параметр Endianness формата : Big
    Идентификатор кодека : 2000
    Продолжительность : 1 ч. 25 м.
    Вид битрейта : Постоянный
    Битрейт : 192 Кбит/сек
    Каналы : 2 канала
    Расположение каналов : Front: L R
    Частота : 48,0 КГц
    Частота кадров : 31,250 кадров/сек (1536 spf)
    Метод сжатия : С потерями
    Размер потока : 118 Мбайт (8%)
    Выравнивание : Разделение по промежуткам
    Продолжительность промежутка : 42 мс. (1,00 видеокадр)
    Время предзагрузки промежутка : 500 мс.

    Скриншот c названием фильма

    Скриншоты








    Скачать .torrent

    Скачать торрент-файл бесплатно и на максимальной скорости!

    Как скачивать? · Что такое торрент? · Рейтинг и ограничения

    !ВНИМАНИЕ!
    Сайт не распространяет и не хранит электронные версии произведений, а занимается лишь лишь предоставлением доступа к создаваемому пользователями каталогу ссылок на торрент-файлы, которые содержат только списки хеш-сумм, убедительная просьба с жалобами обращаться напрямую к пользователю. Файлы для обмена на трекере предоставлены пользователями сайта, и администрация не несёт ответственности за их содержание. Просьба не заливать файлы, защищенные авторскими правами, а также файлы нелегального содержания!


    _________________
    [Профиль] [ЛС]
    Показать сообщения:    
    Ответить на тему

    Текущее время: Сегодня, в 07:09

    Часовой пояс: GMT + 2



    Вы не можете начинать темы
    Вы не можете отвечать на сообщения
    Вы не можете редактировать свои сообщения
    Вы не можете удалять свои сообщения
    Вы не можете голосовать в опросах
    Вы не можете прикреплять файлы к сообщениям
    Вы не можете скачивать файлы