BitTorrentTracker PerecTracker.org
BitTorrentTracker PerecTracker.org
    
Регистрация  ·  Вход
 
 · 
Забыли пароль?

  • [ATV3] Дедушка легкого поведения / Dirty Grandpa (Дэн Мазер / Dan Mazer ) [2016, США, Комедия, WEB-DL, HD (1080p)] DUB [Theatrical Cut]

    Ответить на тему
     
    Автор Сообщение

    rechyn

    Создавать темы 09-Май-2016 19:29

           

    [Цитировать]

    Дедушка легкого поведения / Dirty Grandpa
    (Theatrical Cut)

    «This is Jason. He's a little worried about his grandpa»
    6.160 / 10 6.10 / 10
    -Год выпуска: 2016
    Страна: США
    Жанр: Комедия
    Продолжительность: 01:42:19
    Перевод: Дублированный (iTunes)
    Оригинальная аудиодорожка: Нет
    Cубтитры: Нет
    Режиссёр: Дэн Мазер
    Сценарий: Джон Филлипс
    Продюсер: Джейсон Баррет, Билл Блок, Барри Джозефсон
    Оператор: Эрик Алан Эдвардс
    Композитор: Майкл Эндрюс
    Художник: Уильям Арнольд, Джереми Вулси, Кристи Уиттенборн
    Монтаж: Энн МакКейб
    В ролях: Роберт Де Ниро, Зак Эфрон, Зои Дойч, Обри Плаза, Джейсон Манцукас, Дермот Малруни, Джулианна Хаф, Джеффри Бауэр-Чепман, Брэндон Майкал Смит, Джейк Пикинг
    Сборы в США: $35 593 113
    Сборы в мире: + $58 479 915 = $94 073 028
    Сборы в России: $4 402 288
    Мировая премьера: 20 января 2016
    Премьера (РФ): 21 января 2016, «Централ Партнершип»
    Описание: Джейсон, покладистый правильный парень, накануне свадьбы вляпывается в увеселительную поездку к морю со своим дедом, отставным генералом с легким нравом, бурной фантазией и вполне определенными потребностями… И, похоже, дедские каникулы изменят жизнь Джейсона навсегда!-Качество исходника: WEB-DL 1080p (HDClub)
    Качество: WEB-DL
    Тип: HD (1080p)
    Контейнер: M4V
    Видео: H.264, 1920x796, 2.40:1, 4 479 Kbps, 23.976 (24000/1001) fps
    Аудио 1: Русский/Дублированный (iTunes), AAC / 2.0 / 157 Kbps / 48.0 KHz
    Аудио 2: Русский/Дублированный (iTunes), AC-3 / 5.1 / 384 Kbps / 48.0 KHz
    -

    iTunes Meta Tags

    Sort Name: Dirty Grandpa
    XID: Apple:vendor_id:2016-585585
    contentID: 1068562035
    Copyright: © 2015 V V S Films
    Screenwriters: Джон Филлипс
    Producers: Барри Джозефсон, Джейсон Баррет, Билл Блок
    Director: Дэн Мазер
    Cast: Роберт Де Ниро, Зак Эфрон, Зои Дойч, Обри Плаза, Джейсон Манцукас, Дермот Малруни, Джулианна Хаф, Джеффри Бауэр-Чепман, Брэндон Майкал Смит, Джейк Пикинг, Никита Прозоровский, Даниил Эльдаров, Пётр Иващенко, Евгения Ваган, Александр Шестопалов
    Studio: V V S Films
    Rating: 36
    Long Description: Джейсон, покладистый правильный парень, накануне свадьбы вляпывается в увеселительную поездку к морю со своим дедом, отставным генералом с легким нравом, бурной фантазией и вполне определенными потребностями... И, похоже, дедские каникулы изменят жизнь Джейсона навсегда!
    Description: Джейсон, покладистый правильный парень, накануне свадьбы вляпывается в увеселительную поездку к морю со своим дедом, отставным генералом с легким нравом, бурной фантазией и вполне определенными потребностями... И, похоже, дедские каникулы изменят жизнь Джейсона навсегда!
    Release Date: 2016-01-20T08:00:00Z
    Genre: Comedy
    Artist: Dan Mazer
    Name: Dirty Grandpa

    MediaInfo

    General
    Complete name : /Users/imac/HandBrake/Dirty.Grandpa.WEB-DL.1080p.m4v
    Format : MPEG-4
    Codec ID : M4V  (M4V /M4A /mp42/isom)
    File size : 3.59 GiB
    Duration : 1h 42mn
    Overall bit rate mode : Variable
    Overall bit rate : 5 027 Kbps
    Movie name : Dirty Grandpa
    Performer : Dan Mazer
    Director : Дэн Мазер
    Actor : Роберт Де Ниро / Зак Эфрон / Зои Дойч / Обри Плаза / Джейсон Манцукас / Дермот Малруни / Джулианна Хаф / Джеффри Бауэр-Чепман / Брэндон Майкал Смит / Джейк Пикинг / Никита Прозоровский / Даниил Эльдаров / Пётр Иващенко / Евгения Ваган / Александр Шестопалов
    Screenplay by : Джон Филлипс
    Producer : Барри Джозефсон / Джейсон Баррет / Билл Блок
    Production studio : V V S Films
    Genre : Comedy
    ContentType : Short Film
    Description : Джейсон, покладистый правильный парень, накануне свадьбы вляпывается в увеселительную поездку к морю со своим дедом, отставным генералом с легким нравом, бурной фантазией и вполне определенными потребностями... И, похоже, дедские каникулы изменят жизнь Джейсона навсегда!
    Recorded date : UTC 2016-01-20 08:00:00
    Encoded date : UTC 2016-05-09 13:14:21
    Tagged date : UTC 2016-05-09 13:17:56
    Copyright : © 2015 V V S Films
    Cover : Yes
    Rating : None
    Title/Sort : Dirty Grandpa
    LongDescription : Джейсон, покладистый правильный парень, накануне свадьбы вляпывается в увеселительную поездку к морю со своим дедом, отставным генералом с легким нравом, бурной фантазией и вполне определенными потребностями... И, похоже, дедские каникулы изменят жизнь Джейсона навсегда!
    AppleStoreCatalogID : 1068562035
    Vendor : Apple:vendor_id:2016-585585
    ContentRating : ca-movie|14A|300|
    Video
    ID : 1
    Format : AVC
    Format/Info : Advanced Video Codec
    Format profile : High@L4
    Format settings, CABAC : Yes
    Format settings, ReFrames : 5 frames
    Codec ID : avc1
    Codec ID/Info : Advanced Video Coding
    Duration : 1h 42mn
    Bit rate : 4 479 Kbps
    Width : 1 920 pixels
    Height : 796 pixels
    Display aspect ratio : 2.40:1
    Frame rate mode : Variable
    Frame rate : 23.976 (24000/1001) fps
    Minimum frame rate : 23.810 fps
    Maximum frame rate : 24.390 fps
    Color space : YUV
    Chroma subsampling : 4:2:0
    Bit depth : 8 bits
    Scan type : Progressive
    Bits/(Pixel*Frame) : 0.122
    Stream size : 3.20 GiB (89%)
    Title : Main Program
    Language : English
    Encoded date : UTC 2016-05-09 13:14:21
    Tagged date : UTC 2016-05-09 13:16:04
    Color range : Limited
    Color primaries : BT.709
    Transfer characteristics : BT.709
    Matrix coefficients : BT.709
    Audio #1
    ID : 2
    Format : AAC
    Format/Info : Advanced Audio Codec
    Format profile : LC
    Codec ID : 40
    Duration : 1h 42mn
    Bit rate mode : Variable
    Bit rate : 157 Kbps
    Maximum bit rate : 250 Kbps
    Channel(s) : 2 channels
    Channel positions : Front: L R
    Sampling rate : 48.0 KHz
    Frame rate : 46.875 fps (1024 spf)
    Compression mode : Lossy
    Stream size : 115 MiB (3%)
    Title : Russian Stereo
    Language : Russian
    Default : Yes
    Alternate group : 1
    Encoded date : UTC 2016-05-09 13:14:21
    Tagged date : UTC 2016-05-09 13:14:25
    Fallback From : 3
    Audio #2
    ID : 3
    Format : AC-3
    Format/Info : Audio Coding 3
    Mode extension : CM (complete main)
    Format settings, Endianness : Big
    Codec ID : ac-3
    Duration : 1h 42mn
    Bit rate mode : Constant
    Bit rate : 384 Kbps
    Channel(s) : 6 channels
    Channel positions : Front: L C R, Side: L R, LFE
    Sampling rate : 48.0 KHz
    Frame rate : 31.250 fps (1536 spf)
    Bit depth : 16 bits
    Compression mode : Lossy
    Stream size : 281 MiB (8%)
    Title : Russian DD 5.1
    Language : Russian
    Default : Inherited From: 2
    Alternate group : 1
    Encoded date : UTC 2016-05-09 13:14:21
    Tagged date : UTC 2016-05-09 13:16:04
    Fallback To : 2

    Скриншоты

    -

    Релиз подготовлен для просмотра на Apple TV, iPad, iPhone, iPod Touch.
    Для просмотра данного релиза на компьютере с ОС Windows рекомендуется использовать VLC media player
    Скачать .torrent

    Скачать торрент-файл бесплатно и на максимальной скорости!

    Как скачивать? · Что такое торрент? · Рейтинг и ограничения

    !ВНИМАНИЕ!
    Сайт не распространяет и не хранит электронные версии произведений, а занимается лишь лишь предоставлением доступа к создаваемому пользователями каталогу ссылок на торрент-файлы, которые содержат только списки хеш-сумм, убедительная просьба с жалобами обращаться напрямую к пользователю. Файлы для обмена на трекере предоставлены пользователями сайта, и администрация не несёт ответственности за их содержание. Просьба не заливать файлы, защищенные авторскими правами, а также файлы нелегального содержания!


    _________________
    [Профиль] [ЛС]
    Показать сообщения:    
    Ответить на тему

    Текущее время: Сегодня, в 05:52

    Часовой пояс: GMT + 2



    Вы не можете начинать темы
    Вы не можете отвечать на сообщения
    Вы не можете редактировать свои сообщения
    Вы не можете удалять свои сообщения
    Вы не можете голосовать в опросах
    Вы не можете прикреплять файлы к сообщениям
    Вы не можете скачивать файлы