BitTorrentTracker PerecTracker.org
BitTorrentTracker PerecTracker.org
    
Регистрация  ·  Вход
 
 · 
Забыли пароль?

  • Чемпионы: Быстрее. Выше. Сильнее (Артем Аксененко) [2016 г., спорт, драма, биография, BDRip-AVC]

    Ответить на тему
     
    Автор Сообщение

    Flirldrerve

    Создавать темы 09-Май-2016 15:24

           

    [Цитировать]

    -Чемпионы: Быстрее. Выше. Сильнее--Год выпуска: 2016Жанр: спорт, драма, биографияПродолжительность: 01:43:48--Режиссер:Артем Аксененко-В ролях:Сергей Бондарчук, Евгений Пронин, Кристина Асмус, Егор Корешков, Александр Робак, Дарья Екамасова, Сергей Сосновский, Виктор Хориняк, Джемал Тетруашвили, Кристина Шаповалова-Описание:
    В мире их называли «Асфальтоукладчик», «Королева брусьев» и «Русская торпеда». Борец Александр Карелин, гимнастка Светлана Хоркина и пловец Александр Попов — реальные истории трех легендарных российских спортсменов, на общем счету которых 9 золотых олимпийских медалей и больше тысячи побед! У каждого был свой путь, своя уникальная драматическая история восхождения. Три яркие новеллы, основанные на реальных событиях, расскажут о том, что осталось за кадром спортивной хроники и каким был путь к высшему спортивному достижению — Олимпийский чемпион. Они стали легендами мирового спорта и дали возможность всей стране сказать «Мы победили!».
    --Дополнительная информация:-
    -Сэмпл Рип НЕ совместим с бытовыми DVD-проигрывателями.--Качество видео: BDRip-AVC (Исходник: Blu-ray disc 1080p)
    Формат видео: MKV
    Видео: AVC (x264), 1008x428 (2.135:1), 24 fps, ~2620 kbps avg, 0.247 bit/pixel
    Аудио: 48 kHz, AC3 Dolby Digital, 3/2 (L,C,R,l,r) + LFE ch, 384.00 kbps-

    Скриншоты




    MediaInfo/log

    log

    x264 [info]: frame I:1047 Avg QP:18.86 size: 59065
    x264 [info]: frame P:35452 Avg QP:21.99 size: 24536
    x264 [info]: frame B:112984 Avg QP:22.94 size: 9807
    x264 [info]: consecutive B-frames: 2.5% 4.2% 8.6% 30.0% 20.7% 24.9% 6.4% 0.8% 0.7% 0.6% 0.2% 0.0% 0.1% 0.1% 0.1% 0.0% 0.1%
    x264 [info]: mb I I16..4: 3.3% 79.6% 17.1%
    x264 [info]: mb P I16..4: 0.7% 13.7% 2.2% P16..4: 30.1% 37.2% 11.7% 0.0% 0.0% skip: 4.4%
    x264 [info]: mb B I16..4: 0.1% 1.3% 0.2% B16..8: 42.1% 21.8% 4.5% direct: 6.2% skip:23.9% L0:42.6% L1:48.3% BI: 9.0%
    x264 [info]: 8x8 transform intra:81.9% inter:60.7%
    x264 [info]: direct mvs spatial:94.5% temporal:5.5%
    x264 [info]: coded y,uvDC,uvAC intra: 93.8% 82.6% 49.3% inter: 38.5% 24.1% 5.8%
    x264 [info]: i16 v,h,dc,p: 24% 27% 4% 45%
    x264 [info]: i8 v,h,dc,ddl,ddr,vr,hd,vl,hu: 7% 7% 5% 11% 15% 15% 15% 12% 13%
    x264 [info]: i4 v,h,dc,ddl,ddr,vr,hd,vl,hu: 11% 8% 3% 8% 15% 15% 14% 12% 13%
    x264 [info]: i8c dc,h,v,p: 32% 26% 19% 22%
    x264 [info]: Weighted P-Frames: Y:1.8% UV:0.8%
    x264 [info]: ref P L0: 46.6% 13.6% 17.1% 6.1% 5.0% 3.4% 3.1% 1.7% 1.7% 1.5% 0.2% 0.0%
    x264 [info]: ref B L0: 74.4% 11.5% 5.5% 2.9% 2.0% 1.6% 1.3% 0.5% 0.3%
    x264 [info]: ref B L1: 93.5% 6.5%
    x264 [info]: kb/s:2619.79
    General
    Unique ID : 195673582397036918719114448491767479374 (0x93355C7566AA54EB9117F151607D3C4E)
    Complete name : \Chempiony_Bystree_Vyshe_Silnee_(2016).BDRip-AVC.aac.sub_[All.Films][RG].mkv
    Format : Matroska
    Format version : Version 2
    File size : 2.17 GiB
    Duration : 1h 43mn
    Overall bit rate : 2 997 Kbps
    Movie name : Чемпионы Быстрее. Выше. Сильнее (2016) BDRip-AVC | <VIRUS> [perectracker.org][All.Films][RG].mkv
    Encoded date : UTC 2016-05-06 09:00:01
    Writing application : mkvmerge v7.8.0 ('River Man') 32bit built on Apr 3 2015 12:11:22
    Writing library : libebml v1.3.1 + libmatroska v1.4.2
    Video
    ID : 1
    Format : AVC
    Format/Info : Advanced Video Codec
    Format profile : High@L4.1
    Format settings, CABAC : Yes
    Format settings, ReFrames : 10 frames
    Codec ID : V_MPEG4/ISO/AVC
    Duration : 1h 43mn
    Bit rate : 2 622 Kbps
    Width : 1 008 pixels
    Height : 428 pixels
    Display aspect ratio : 2.35:1
    Frame rate mode : Constant
    Frame rate : 24.000 fps
    Color space : YUV
    Chroma subsampling : 4:2:0
    Bit depth : 8 bits
    Scan type : Progressive
    Bits/(Pixel*Frame) : 0.253
    Stream size : 1.85 GiB (85%)
    Writing library : x264 core 148 r2638kMod 7599210
    Encoding settings : cabac=1 / ref=10 / deblock=1:-2:-1 / analyse=0x3:0x113 / me=umh / subme=11 / psy=1 / fade_compensate=0.00 / psy_rd=1.05:0.00 / mixed_ref=1 / me_range=42 / chroma_me=1 / trellis=2 / 8x8dct=1 / cqm=0 / deadzone=21,11 / fast_pskip=0 / chroma_qp_offset=-2 / threads=6 / lookahead_threads=1 / sliced_threads=0 / nr=0 / decimate=0 / interlaced=0 / bluray_compat=0 / constrained_intra=0 / fgo=0 / bframes=16 / b_pyramid=2 / b_adapt=2 / b_bias=0 / direct=3 / weightb=1 / open_gop=0 / weightp=2 / keyint=240 / keyint_min=23 / scenecut=40 / intra_refresh=0 / rc_lookahead=60 / rc=2pass / mbtree=0 / bitrate=2622 / ratetol=1.0 / qcomp=0.60 / qpmin=0 / qpmax=69 / qpstep=4 / cplxblur=20.0 / qblur=0.5 / vbv_maxrate=50000 / vbv_bufsize=62500 / nal_hrd=none / filler=0 / ip_ratio=1.40 / pb_ratio=1.30 / aq=3:1.00 / zones=144200,149483,q=30
    Default : Yes
    Forced : No
    Audio
    ID : 2
    Format : AC-3
    Format/Info : Audio Coding 3
    Mode extension : CM (complete main)
    Format settings, Endianness : Big
    Codec ID : A_AC3
    Duration : 1h 43mn
    Bit rate mode : Constant
    Bit rate : 384 Kbps
    Channel(s) : 6 channels
    Channel positions : Front: L C R, Side: L R, LFE
    Sampling rate : 48.0 KHz
    Compression mode : Lossy
    Stream size : 285 MiB (13%)
    Language : Russian
    Default : Yes
    Forced : No
    Text
    ID : 3
    Format : UTF-8
    Codec ID : S_TEXT/UTF8
    Codec ID/Info : UTF-8 Plain Text
    Language : English
    Default : No
    Forced : No
    Menu
    00:00:00.000 : ru:Chapter 1
    00:01:07.208 : ru:Chapter 2
    00:14:04.333 : ru:Chapter 3
    00:27:26.333 : ru:Chapter 4
    00:40:01.250 : ru:Chapter 5
    00:49:56.958 : ru:Chapter 6
    01:00:13.250 : ru:Chapter 7
    01:14:04.666 : ru:Chapter 8
    01:27:28.541 : ru:Chapter 9
    FAQ по просмотру MKV/h.264/AAC
    Скачать .torrent

    Скачать торрент-файл бесплатно и на максимальной скорости!

    Как скачивать? · Что такое торрент? · Рейтинг и ограничения

    !ВНИМАНИЕ!
    Сайт не распространяет и не хранит электронные версии произведений, а занимается лишь лишь предоставлением доступа к создаваемому пользователями каталогу ссылок на торрент-файлы, которые содержат только списки хеш-сумм, убедительная просьба с жалобами обращаться напрямую к пользователю. Файлы для обмена на трекере предоставлены пользователями сайта, и администрация не несёт ответственности за их содержание. Просьба не заливать файлы, защищенные авторскими правами, а также файлы нелегального содержания!


    _________________
    [Профиль] [ЛС]
    Показать сообщения:    
    Ответить на тему

    Текущее время: Сегодня, в 20:46

    Часовой пояс: GMT + 2



    Вы не можете начинать темы
    Вы не можете отвечать на сообщения
    Вы не можете редактировать свои сообщения
    Вы не можете удалять свои сообщения
    Вы не можете голосовать в опросах
    Вы не можете прикреплять файлы к сообщениям
    Вы не можете скачивать файлы