BitTorrentTracker PerecTracker.org
BitTorrentTracker PerecTracker.org
    
Регистрация  ·  Вход
 
 · 
Забыли пароль?

  • Всем нужна Кэт 2 / Cat Run 2 (Джон Стокуэлл / John Stockwell) [2014, США, боевик, комедия, HDRip-AVC] Dub Лицензия

    Ответить на тему
     
    Автор Сообщение

    Light

    Создавать темы 09-Май-2016 15:24

           

    [Цитировать]

    Всем нужна Кэт 2 / Cat Run 2
    Страна: США
    Жанр: боевик, комедия
    Год выпуска: 2014
    Продолжительность: 01:36:11
    Перевод: Профессиональный (дублированный) Лицензия
    Cубтитры: нет
    Оригинальная аудиодорожка: нет
    Режиссер: Джон Стокуэлл / John Stockwell--В ролях: Скотт Мехловиц, Альфонсо МакОли, Винтер Эйв Золи, Ванесса Бренч, Мария Роджерс, Лоуренс П. Берон, Томас Та Хайд III, Дэвид Мальдонадо, Леонардо Нам...--Описание: Когда несколько высокопоставленных чиновников убиты на их собственной военной базе, два детектива обнаружили сверхсекретный эксперимент, который ставит под угрозу их жизнь и безопасность страны. Энтони и Джулиан — детективы-дебютанты решили совершить поездку в Новый Орлеан…--Доп. информация: | IMDB | КиноПоиск | Сэмпл |--Качество видео: HDRip-AVC
    Формат видео: MKV
    Видео: AVC, 1024x576, (16:9), 1774 kbps, 23.976 fps
    Аудио: AC3 Dolby Digital, 3/2 (L,C,R,l,r) + LFE ch, 48 kHz, 384 kbps

    MediaInfo

    General
    Unique ID : 221637162358940242029011756382937790560 (0xA6BDC3C8772709A29B96F06ABA6DB860)
    Complete name : Cat Run 2 (2014).mkv
    Format : Matroska
    Format version : Version 4 / Version 2
    File size : 1.45 GiB
    Duration : 1h 36mn
    Overall bit rate : 2 160 Kbps
    Movie name : Всем нужна Кэт 2 / Cat Run 2 (2014)
    Encoded date : UTC 2016-05-07 15:44:10
    Writing application : mkvmerge v8.1.0 ('Psychedelic Postcard') 64bit
    Writing library : libebml v1.3.1 + libmatroska v1.4.2
    Cover : Yes
    Attachments : cover.jpg
    Video
    ID : 1
    Format : AVC
    Format/Info : Advanced Video Codec
    Format profile : High@L4.1
    Format settings, CABAC : Yes
    Format settings, ReFrames : 9 frames
    Codec ID : V_MPEG4/ISO/AVC
    Duration : 1h 36mn
    Bit rate : 1 774 Kbps
    Width : 1 024 pixels
    Height : 576 pixels
    Display aspect ratio : 16:9
    Frame rate mode : Constant
    Frame rate : 23.976 (24000/1001) fps
    Color space : YUV
    Chroma subsampling : 4:2:0
    Bit depth : 8 bits
    Scan type : Progressive
    Bits/(Pixel*Frame) : 0.125
    Stream size : 1.19 GiB (82%)
    Title : Cat Run 2 (2014)
    Writing library : x264 core 130 r2273 b3065e6
    Encoding settings : cabac=1 / ref=9 / deblock=1:-3:-3 / analyse=0x3:0x133 / me=umh / subme=11 / psy=1 / psy_rd=1.00:0.20 / mixed_ref=1 / me_range=48 / chroma_me=1 / trellis=2 / 8x8dct=1 / cqm=0 / deadzone=21,11 / fast_pskip=1 / chroma_qp_offset=-3 / threads=18 / lookahead_threads=3 / sliced_threads=0 / nr=0 / decimate=1 / interlaced=0 / bluray_compat=0 / constrained_intra=0 / bframes=8 / b_pyramid=2 / b_adapt=2 / b_bias=0 / direct=3 / weightb=1 / open_gop=0 / weightp=2 / keyint=250 / keyint_min=23 / scenecut=40 / intra_refresh=0 / rc=2pass / mbtree=0 / bitrate=1774 / ratetol=1.0 / qcomp=0.60 / qpmin=0 / qpmax=69 / qpstep=4 / cplxblur=20.0 / qblur=0.5 / ip_ratio=1.40 / pb_ratio=1.30 / aq=1:1.00
    Language : English
    Default : Yes
    Forced : No
    Audio
    ID : 2
    Format : AC-3
    Format/Info : Audio Coding 3
    Mode extension : CM (complete main)
    Format settings, Endianness : Big
    Codec ID : A_AC3
    Duration : 1h 36mn
    Bit rate mode : Constant
    Bit rate : 384 Kbps
    Channel(s) : 6 channels
    Channel positions : Front: L C R, Side: L R, LFE
    Sampling rate : 48.0 KHz
    Frame rate : 31.250 fps (1536 spf)
    Compression mode : Lossy
    Stream size : 264 MiB (18%)
    Title : Дубляж
    Language : Russian
    Default : Yes
    Forced : No

    Скриншоты

    Скачать .torrent

    Скачать торрент-файл бесплатно и на максимальной скорости!

    Как скачивать? · Что такое торрент? · Рейтинг и ограничения

    !ВНИМАНИЕ!
    Сайт не распространяет и не хранит электронные версии произведений, а занимается лишь лишь предоставлением доступа к создаваемому пользователями каталогу ссылок на торрент-файлы, которые содержат только списки хеш-сумм, убедительная просьба с жалобами обращаться напрямую к пользователю. Файлы для обмена на трекере предоставлены пользователями сайта, и администрация не несёт ответственности за их содержание. Просьба не заливать файлы, защищенные авторскими правами, а также файлы нелегального содержания!


    _________________
    [Профиль] [ЛС]
    Показать сообщения:    
    Ответить на тему

    Текущее время: Сегодня, в 18:59

    Часовой пояс: GMT + 2



    Вы не можете начинать темы
    Вы не можете отвечать на сообщения
    Вы не можете редактировать свои сообщения
    Вы не можете удалять свои сообщения
    Вы не можете голосовать в опросах
    Вы не можете прикреплять файлы к сообщениям
    Вы не можете скачивать файлы