BitTorrentTracker PerecTracker.org
BitTorrentTracker PerecTracker.org
    
Регистрация  ·  Вход
 
 · 
Забыли пароль?

  • [ATV3] Убей своих друзей / Kill Your Friends (Оуэн Харрис / Owen Harris) [2015, Великобритания, триллер, комедия, криминал, WEB-DL, HD (1080p)] DUB

    Ответить на тему
     
    Автор Сообщение

    rechyn

    Создавать темы 09-Май-2016 03:11

           

    [Цитировать]

    Убей своих друзей / Kill Your Friends
    «Lies. Betrayal. Murder. Just another day at the office»
    6.090 / 10 6.10 / 10
    -Год выпуска: 2015
    Страна: Великобритания
    Жанр: триллер, комедия, криминал
    Продолжительность: 01:38:58
    Перевод: Дублированный (iTunes)
    Оригинальная аудиодорожка: Нет
    Cубтитры: Нет
    Режиссёр: Оуэн Харрис
    Сценарий: Джон Найвен
    Продюсер: Грегор Камерон, Уилл Кларк, Лен Блаватник
    Оператор: Густав Даниэльссон
    Композитор: Джанки Экс-Эл
    Художник: Шарлотта Пирсон, Джеймс Прайс, Сьюзи Култхард
    Монтаж: Билл Смедли
    В ролях: Николас Холт, Джеймс Корден, Джорджия Кинг, Крэйг Робертс, Джим Пиддок, Джозеф Моул, Дастин Демри-Бёрнс, Дэмиен Молони, Бронсон Уэбб, Элла Смит
    Сборы в России: $86 200
    Мировая премьера: 5 августа 2015
    Премьера (РФ): 10 декабря 2015, «25th Floor Film»
    Описание: Знакомьтесь, Стивен Стелфокс — менеджер по поиску талантов в звукозаписывающей студии. Наполненный жадностью и тщеславием, Стелфокс весело колесит по всему земному шару в поисках молодых талантов. Но как только хиты заканчиваются и индустрия начинает меняться, Стелфоксу ничего больше не остается, как сыграть по правилам жестокого бизнеса, чтобы добраться к вершинам и спасти свою карьеру…-Качество исходника: WEB-DL 1080p (BlueBird)
    Качество: WEB-DL
    Тип: HD (1080p)
    Контейнер: M4V
    Видео: H.264, 1912x796, 2.40:1, 4 528 Kbps, 25.000 fps
    Аудио 1: Русский/Дублированный (iTunes), AAC / 2.0 / 157 Kbps / 48.0 KHz
    Аудио 2: Русский/Дублированный (iTunes), AC-3 / 5.1 / 384 Kbps / 48.0 KHz
    -

    iTunes Meta Tags

    Sort Name: Убей своих друзей
    XID: Apple:vendor_id:2015-713797
    contentID: 1103632102
    Copyright: © 2015, ООО \"Планета Информ Телеконтент\"
    Screenwriters: Джон Найвен
    Producers: Грегор Камерон, Уилл Кларк, Лен Блаватник
    Director: Оуэн Харрис
    Cast: Николас Холт, Джеймс Корден, Джорджия Кинг, Крэйг Робертс, Джим Пиддок, Джозеф Моул, Дастин Демри-Бёрнс, Дэмиен Молони, Бронсон Уэбб, Элла Смит, Станислав Тикунов, Алена Фалалеева, Александр Дасевич, Василий Дахненко, Александр Шестопалов
    Studio: Unigram, Al-Film, Al-Film
    Rating: 136
    Long Description: Знакомьтесь, Стивен Стелфокс - менеджер по поиску талантов в звукозаписывающей студии. Наполненный жадностью и тщеславием, Стелфокс весело колесит по всему земному шару в поисках молодых талантов. Но как только хиты заканчиваются и индустрия начинает меняться, Стелфоксу ничего больше не остается, как сыграть по правилам жестокого бизнеса, чтобы добраться к вершинам и спасти свою карьеру...
    Description: Знакомьтесь, Стивен Стелфокс - менеджер по поиску талантов в звукозаписывающей студии. Наполненный жадностью и тщеславием, Стелфокс весело колесит по всему земному шару в поисках молодых талантов. Но как только хиты заканчиваются и индустрия начинает меняться, Стелфоксу ничего больше не остается, как сыграть по правилам жестокого бизнеса, чтобы добраться к вершинам и спасти свою карьеру...
    Release Date: 2015-08-05T08:00:00Z
    Genre: Триллеры
    Artist: Оуэн Харрис
    Name: Убей своих друзей

    MediaInfo

    General
    Complete name : /Users/imac/HandBrake/Kill.Your.Friends.WEB-DL.1080p.m4v
    Format : MPEG-4
    Codec ID : M4V  (M4V /M4A /mp42/isom)
    File size : 3.51 GiB
    Duration : 1h 38mn
    Overall bit rate mode : Variable
    Overall bit rate : 5 075 Kbps
    Movie name : Убей своих друзей
    Performer : Оуэн Харрис
    Director : Оуэн Харрис
    Actor : Николас Холт / Джеймс Корден / Джорджия Кинг / Крэйг Робертс / Джим Пиддок / Джозеф Моул / Дастин Демри-Бёрнс / Дэмиен Молони / Бронсон Уэбб / Элла Смит / Станислав Тикунов / Алена Фалалеева / Александр Дасевич / Василий Дахненко / Александр Шестопалов
    Screenplay by : Джон Найвен
    Producer : Грегор Камерон / Уилл Кларк / Лен Блаватник
    Production studio : Unigram, Al-Film, Al-Film
    Genre : Триллеры
    ContentType : Short Film
    Description : Знакомьтесь, Стивен Стелфокс - менеджер по поиску талантов в звукозаписывающей студии. Наполненный жадностью и тщеславием, Стелфокс весело колесит по всему земному шару в поисках молодых талантов. Но как только хиты заканчиваются и индустрия начинает меняться, Стелфоксу ничего больше не остается, как сыграть по правилам жестокого бизнеса, чтобы добраться к вершинам и спасти свою карьеру...
    Recorded date : UTC 2015-08-05 08:00:00
    Encoded date : UTC 2016-04-25 09:12:03
    Tagged date : UTC 2016-04-25 09:14:49
    Copyright : © 2015, ООО \"Планета Информ Телеконтент\"
    Cover : Yes
    Rating : None
    Title/Sort : Убей своих друзей
    LongDescription : Знакомьтесь, Стивен Стелфокс - менеджер по поиску талантов в звукозаписывающей студии. Наполненный жадностью и тщеславием, Стелфокс весело колесит по всему земному шару в поисках молодых талантов. Но как только хиты заканчиваются и индустрия начинает меняться, Стелфоксу ничего больше не остается, как сыграть по правилам жестокого бизнеса, чтобы добраться к вершинам и спасти свою карьеру...
    AppleStoreCatalogID : 1103632102
    Vendor : Apple:vendor_id:2015-713797
    ContentRating : ru-movie|18+|400|
    Video #1
    ID : 1
    Format : AVC
    Format/Info : Advanced Video Codec
    Format profile : High@L4
    Format settings, CABAC : Yes
    Format settings, ReFrames : 5 frames
    Codec ID : avc1
    Codec ID/Info : Advanced Video Coding
    Duration : 1h 38mn
    Bit rate : 4 528 Kbps
    Width : 1 912 pixels
    Height : 796 pixels
    Display aspect ratio : 2.40:1
    Frame rate mode : Constant
    Frame rate : 25.000 fps
    Color space : YUV
    Chroma subsampling : 4:2:0
    Bit depth : 8 bits
    Scan type : Progressive
    Bits/(Pixel*Frame) : 0.119
    Stream size : 3.13 GiB (89%)
    Title : Main Program
    Language : English
    Encoded date : UTC 2016-04-25 09:12:03
    Tagged date : UTC 2016-04-25 09:12:09
    Color range : Limited
    Color primaries : BT.709
    Transfer characteristics : BT.709
    Matrix coefficients : BT.709
    Menus : 4,5
    Video #2
    ID : 5
    Format : JPEG
    Codec ID : jpeg
    Duration : 1h 38mn
    Bit rate mode : Variable
    Bit rate : 378 bps
    Width : 640 pixels
    Height : 266 pixels
    Display aspect ratio : 2.40:1
    Frame rate mode : Variable
    Frame rate : 0.002 fps
    Minimum frame rate : 0.001 fps
    Maximum frame rate : 0.003 fps
    Color space : YUV
    Chroma subsampling : 4:2:0
    Bit depth : 8 bits
    Compression mode : Lossy
    Bits/(Pixel*Frame) : 1.110
    Stream size : 253 KiB (0%)
    Title : Chapter Images
    Language : English
    Default : No
    Encoded date : UTC 2016-04-25 09:12:15
    Tagged date : UTC 2016-04-25 09:12:15
    Menu For : 1
    Audio #1
    ID : 2
    Format : AAC
    Format/Info : Advanced Audio Codec
    Format profile : LC
    Codec ID : 40
    Duration : 1h 38mn
    Bit rate mode : Variable
    Bit rate : 157 Kbps
    Maximum bit rate : 223 Kbps
    Channel(s) : 2 channels
    Channel positions : Front: L R
    Sampling rate : 48.0 KHz
    Frame rate : 46.875 fps (1024 spf)
    Compression mode : Lossy
    Stream size : 111 MiB (3%)
    Title : Russian Stereo
    Language : Russian
    Default : Yes
    Alternate group : 1
    Encoded date : UTC 2016-04-25 09:12:03
    Tagged date : UTC 2016-04-25 09:12:10
    Fallback From : 3
    Audio #2
    ID : 3
    Format : AC-3
    Format/Info : Audio Coding 3
    Mode extension : CM (complete main)
    Format settings, Endianness : Big
    Codec ID : ac-3
    Duration : 1h 38mn
    Bit rate mode : Constant
    Bit rate : 384 Kbps
    Channel(s) : 6 channels
    Channel positions : Front: L C R, Side: L R, LFE
    Sampling rate : 48.0 KHz
    Frame rate : 31.250 fps (1536 spf)
    Bit depth : 16 bits
    Compression mode : Lossy
    Stream size : 272 MiB (8%)
    Title : Russian DD 5.1
    Language : Russian
    Default : Inherited From: 2
    Alternate group : 1
    Encoded date : UTC 2016-04-25 09:12:03
    Tagged date : UTC 2016-04-25 09:12:09
    Fallback To : 2
    Menu #1
    00:00:00.000 : 1
    00:04:59.000 : 2
    00:17:37.000 : 3
    00:26:10.000 : 4
    00:36:20.000 : 5
    00:46:42.000 : 6
    00:55:36.000 : 7
    01:04:52.000 : 8
    01:17:30.000 : 9
    01:25:14.000 : 10
    01:33:57.000 : 11
    Menu #2
    ID : 4
    Codec ID : text
    Duration : 1h 38mn
    Language : English
    Encoded date : UTC 2016-04-25 09:12:10
    Tagged date : UTC 2016-04-25 09:12:10
    Menu For : 1
    00:00:00.000 : 1
    00:04:59.000 : 2
    00:17:37.000 : 3
    00:26:10.000 : 4
    00:36:20.000 : 5
    00:46:42.000 : 6
    00:55:36.000 : 7
    01:04:52.000 : 8
    01:17:30.000 : 9
    01:25:14.000 : 10
    01:33:57.000 : 11
    Bit rate mode : VBR

    Скриншоты

    -

    Релиз подготовлен для просмотра на Apple TV, iPad, iPhone, iPod Touch.
    Для просмотра данного релиза на компьютере с ОС Windows рекомендуется использовать VLC media player
    Скачать .torrent

    Скачать торрент-файл бесплатно и на максимальной скорости!

    Как скачивать? · Что такое торрент? · Рейтинг и ограничения

    !ВНИМАНИЕ!
    Сайт не распространяет и не хранит электронные версии произведений, а занимается лишь лишь предоставлением доступа к создаваемому пользователями каталогу ссылок на торрент-файлы, которые содержат только списки хеш-сумм, убедительная просьба с жалобами обращаться напрямую к пользователю. Файлы для обмена на трекере предоставлены пользователями сайта, и администрация не несёт ответственности за их содержание. Просьба не заливать файлы, защищенные авторскими правами, а также файлы нелегального содержания!


    _________________
    [Профиль] [ЛС]
    Показать сообщения:    
    Ответить на тему

    Текущее время: Сегодня, в 04:15

    Часовой пояс: GMT + 2



    Вы не можете начинать темы
    Вы не можете отвечать на сообщения
    Вы не можете редактировать свои сообщения
    Вы не можете удалять свои сообщения
    Вы не можете голосовать в опросах
    Вы не можете прикреплять файлы к сообщениям
    Вы не можете скачивать файлы