BitTorrentTracker PerecTracker.org
BitTorrentTracker PerecTracker.org
    
Регистрация  ·  Вход
 
 · 
Забыли пароль?

  • Гадюки / Crapuleuses (Магали Ришар-Серрано / Magaly Richard-Serrano) [2011, Франция, молодежная драма, DVB] Original (Fre) + Sub (Rus, Eng, Fre, Deu)

    Ответить на тему
     
    Автор Сообщение

    Light

    Создавать темы 08-Май-2016 19:01

           

    [Цитировать]

    Гадюки
    Crapuleuses-Страна: Франция
    Жанр: молодежная драма
    Год выпуска: 2011
    Продолжительность: 01:31:03
    Перевод: Субтитры (перевод М.Кузиной, Éclair Group)
    Cубтитры: русские, английские, французские, немецкие, нидерландские, румынские
    Оригинальная аудиодорожка: французскийРежиссер: Магали Ришар-Серрано / Magaly Richard-Serrano
    В ролях: Яра Пиларц / Yara Pilartz (Violette), Леа Дрюкер / Léa Drucker (Pascale), Венди Ньето / Wendy Nieto (Sabine), Фабио Дзенони / Fabio Zenoni (Jean-Philippe), Батист Кайо / Baptiste Caillaud (CG man)
    Описание: На основе книги психотерапевта Стефани Руби / Stéphanie Rubi "Гадюки" – девиантные подростки / Les "crapuleuses", ces adolescentes déviantes" (2005).
    Девиантное поведение — это поступки и действия человека, не соответствующие официально установленным или фактически сложившимся в данном обществе нормам или стандартам. Жизнь Виолетты, беззаботной 14-летней парижанки, кардинально меняется после рождения младшего брата. Родители ради увеличившейся семьи вынуждены переехать в дом побольше, но находящийся в "проблемном районе" в пригороде. Виолетта вскоре становится жертвой издевательств в школе, но неожиданно находит защиту у харизматичной 16-летней Сабрины, которая оказывается предводительницей девичьей банды т.н. "гадюк"…
    Доп. информация: Hot Bird (13.0°E) TV5MONDE Europe DVB-S
    Награды: 2 награды Luchon International Film Festival 2012 (приз "Золото Пиренеев" за лучший телефильм, Специальный приз за лучший дуэт - Yara Pilartz и Wendy Nieto).

    Качество видео: DVB
    Формат видео: TS
    Видео: MPEG Video 2, 720x576@1024x576 (16:9), 25 fps, ~3244 kbps avg, 0.313 bit/pixel
    Аудио: MPEG Audio 2, 2 ch, 48 kHz, 192 kbps - французский
    Формат субтитров: PGS

    MediaInfo

    GeneralID : 1 (0x1)Complete name : [apreder]Crapuleuses(2011)DVB.tsFormat : MPEG-TSFile size : 2.30 GiBDuration : 1h 31mnOverall bit rate mode : VariableOverall bit rate : 3 617 KbpsMaximum Overall bit rate : 35.5 Mbps
    VideoID : 4113 (0x1011)Menu ID : 1 (0x1)Format : MPEG VideoFormat version : Version 2Format profile : Main@MainFormat settings, BVOP : YesFormat settings, Matrix : CustomFormat settings, GOP : M=4, N=12Format settings, picture structure : FrameCodec ID : 2Duration : 1h 31mnBit rate mode : VariableBit rate : 3 244 KbpsWidth : 720 pixelsHeight : 576 pixelsDisplay aspect ratio : 16:9Frame rate : 25.000 fpsStandard : PALColor space : YUVChroma subsampling : 4:2:0Bit depth : 8 bitsScan type : InterlacedScan order : Top Field FirstCompression mode : LossyBits/(Pixel*Frame) : 0.313Time code of first frame : 00:00:00:00Time code source : Group of pictures headerGOP, Open/Closed : OpenGOP, Open/Closed of first frame : ClosedStream size : 2.06 GiB (90%)
    AudioID : 4352 (0x1100)Menu ID : 1 (0x1)Format : MPEG AudioFormat version : Version 1Format profile : Layer 2Codec ID : 4Duration : 1h 31mnBit rate mode : ConstantBit rate : 192 KbpsChannel(s) : 2 channelsSampling rate : 48.0 KHzCompression mode : LossyStream size : 125 MiB (5%)Language : French
    Text #1ID : 4608 (0x1200)Menu ID : 1 (0x1)Format : PGSCodec ID : 144Duration : 1h 31mnDelay relative to video : 960msLanguage : Russian
    Text #2ID : 4609 (0x1201)Menu ID : 1 (0x1)Format : PGSCodec ID : 144Delay relative to video : 960msLanguage : English
    Text #3ID : 4610 (0x1202)Menu ID : 1 (0x1)Format : PGSCodec ID : 144Duration : 1h 31mnDelay relative to video : 960msLanguage : French
    Text #4ID : 4611 (0x1203)Menu ID : 1 (0x1)Format : PGSCodec ID : 144Delay relative to video : 960msLanguage : German
    Text #5ID : 4612 (0x1204)Menu ID : 1 (0x1)Format : PGSCodec ID : 144Duration : 1h 31mnDelay relative to video : 960msLanguage : Dutch
    Text #6ID : 4613 (0x1205)Menu ID : 1 (0x1)Format : PGSCodec ID : 144Delay relative to video : 960msLanguage : Romanian

    Скриншот c названием фильма

    Скриншоты

    Резервные скриншоты


    -[1'183]
    Скачать .torrent

    Скачать торрент-файл бесплатно и на максимальной скорости!

    Как скачивать? · Что такое торрент? · Рейтинг и ограничения

    !ВНИМАНИЕ!
    Сайт не распространяет и не хранит электронные версии произведений, а занимается лишь лишь предоставлением доступа к создаваемому пользователями каталогу ссылок на торрент-файлы, которые содержат только списки хеш-сумм, убедительная просьба с жалобами обращаться напрямую к пользователю. Файлы для обмена на трекере предоставлены пользователями сайта, и администрация не несёт ответственности за их содержание. Просьба не заливать файлы, защищенные авторскими правами, а также файлы нелегального содержания!


    _________________
    [Профиль] [ЛС]
    Показать сообщения:    
    Ответить на тему

    Текущее время: Сегодня, в 18:22

    Часовой пояс: GMT + 2



    Вы не можете начинать темы
    Вы не можете отвечать на сообщения
    Вы не можете редактировать свои сообщения
    Вы не можете удалять свои сообщения
    Вы не можете голосовать в опросах
    Вы не можете прикреплять файлы к сообщениям
    Вы не можете скачивать файлы