BitTorrentTracker PerecTracker.org
BitTorrentTracker PerecTracker.org
    
Регистрация  ·  Вход
 
 · 
Забыли пароль?

  • Я есть гнев / I Am Wrath (Чак Расселл / Chuck Russell) [2016, США, Боевик, триллер, драма, криминал, BDRip] DVO

    Ответить на тему
     
    Автор Сообщение

    rechyn

    Создавать темы 08-Май-2016 10:52

           

    [Цитировать]

    Я есть гнев / I Am Wrath--Страна: США
    Жанр: Боевик, триллер, драма, криминал
    Продолжительность: 01:30:34
    Год выпуска: 2016
    -Перевод: Любительский (двухголосый, закадровый)
    Субтитры: нет
    Режиссёр: Чак Расселл / Chuck Russell
    -В ролях:
    Джон Траволта (Stanley Hill), Аманда Шулл (Abbie), Ребекка Де Морнэй (Vivian Hill), Кристофер Мелони (Dennis), Дорис Моргадо (Rosa), Сэм Трэммелл (Det. Gibson), Луис Да Силва мл. (Charley), Патрик Ст. Эсприт (Governor Meserve), Пол Слоун (Lemi K), Дэвид Хатчинсон (Crew #1)
    -Описание:
    История человека, чью жену убили и который, отчаявшись дождаться каких-то действий со стороны полиции, решает сам найти преступника и покарать его.
    -Релиз групп All Films и RG Torrents.ru-Сэмпл: https://www.sendspace.com/file/q1t5dw-Качество: BDRip - Исходник: BDRemux 1080p (Кинозал)
    Формат: AVI
    Видео: 688x288 (2.39:1), 23.976 fps, XviD build 73 ~1010 kbps avg, 0.21 bit/pixel
    Аудио: 48 kHz, MPEG Layer 3, 2 ch, ~128.00 kbps avg
    -

    Отчёт MediaInfo

    General
    Complete name : C:\Users\Максим\Desktop\I.Am.Wrath.2016.BDRip.polkera.avi
    Format : AVI
    Format/Info : Audio Video Interleave
    File size : 744 MiB
    Duration : 1h 30mn
    Overall bit rate : 1 148 Kbps
    Writing application : VirtualDubMod 1.5.10.3 | www.virtualdub-fr.org || (build 2550/release)
    Writing library : VirtualDubMod build 2550/release
    Video
    Format : MPEG-4 Visual
    Format profile : Streaming Video@L1
    Format settings, BVOP : Yes
    Format settings, QPel : No
    Format settings, GMC : No warppoints
    Format settings, Matrix : Custom
    Codec ID : XVID
    Codec ID/Hint : XviD
    Duration : 1h 30mn
    Bit rate : 1 011 Kbps
    Width : 688 pixels
    Height : 288 pixels
    Display aspect ratio : 2.35
    Frame rate : 23.976 fps
    Resolution : 24 bits
    Colorimetry : 4:2:0
    Scan type : Progressive
    Bits/(Pixel*Frame) : 0.213
    Stream size : 655 MiB (88%)
    Writing library : XviD 73
    Audio
    Format : MPEG Audio
    Format version : Version 1
    Format profile : Layer 3
    Codec ID : 55
    Codec ID/Hint : MP3
    Duration : 1h 30mn
    Bit rate mode : Constant
    Bit rate : 128 Kbps
    Channel(s) : 2 channels
    Sampling rate : 48.0 KHz
    Resolution : 16 bits
    Stream size : 82.9 MiB (11%)
    Alignment : Aligned on interleaves
    Interleave, duration : 42 ms (1.00 video frame)
    Interleave, preload duration : 504 ms
    Writing library : LAME3.99r
    Encoding settings : -m s -V 4 -q 2 -lowpass 17 -b 128

    -

    Скриншоты

    -
    |
    Скачать .torrent

    Скачать торрент-файл бесплатно и на максимальной скорости!

    Как скачивать? · Что такое торрент? · Рейтинг и ограничения

    !ВНИМАНИЕ!
    Сайт не распространяет и не хранит электронные версии произведений, а занимается лишь лишь предоставлением доступа к создаваемому пользователями каталогу ссылок на торрент-файлы, которые содержат только списки хеш-сумм, убедительная просьба с жалобами обращаться напрямую к пользователю. Файлы для обмена на трекере предоставлены пользователями сайта, и администрация не несёт ответственности за их содержание. Просьба не заливать файлы, защищенные авторскими правами, а также файлы нелегального содержания!


    _________________
    [Профиль] [ЛС]
    Показать сообщения:    
    Ответить на тему

    Текущее время: Сегодня, в 00:10

    Часовой пояс: GMT + 2



    Вы не можете начинать темы
    Вы не можете отвечать на сообщения
    Вы не можете редактировать свои сообщения
    Вы не можете удалять свои сообщения
    Вы не можете голосовать в опросах
    Вы не можете прикреплять файлы к сообщениям
    Вы не можете скачивать файлы