BitTorrentTracker PerecTracker.org
BitTorrentTracker PerecTracker.org
    
Регистрация  ·  Вход
 
 · 
Забыли пароль?

  • Рядовой Писфул / Private Peaceful (Пэт О’Коннор / Pat O\'Connor) [2012, Великобритания, драма, военный, BDRip] VO (студия Райдо)

    Ответить на тему
     
    Автор Сообщение

    Light

    Создавать темы 08-Май-2016 10:52

           

    [Цитировать]

    Рядовой Писфул / Private Peaceful
    Страна: Великобритания
    Жанр: драма, военный
    Годы выпуска: 2012
    Продолжительность: 01:38:19
    Перевод: Одноголосый закадровый студия Райдо
    Субтитры: нет
    Оригинальная аудиодорожка: нет
    Режиссер: Пэт О’Коннор / Pat O'Connor
    В ролях: Джордж МакКэй, Джек О’Коннелл, Александра Роуч, Фрэнсис де ла Тур, Ричард Гриффитс, Джон Линч, Максин Пик, Сэмюэл Боттомли, Хиро Файнс-Тиффин, Иззи Мейкл-Смолл, Анна Картерет, Стивен Кеннеди
    Описание: Когда юный Томмо Писфул уходит добровольцем на фронт, его старший брат Чарли, привыкший всегда защищать Томмо, следует за ним во Фландрию.
    Доп. информация:
    Качество видео: BDRip | marchelush/1080p BD-Remux
    Формат видео: AVI
    Видео: 720x384 (1.88:1), 25 fps, XviD build 73 ~1731 kbps avg, 0.25 bit/pixel
    Аудио: 48 kHz, AC3 Dolby Digital, 3/2 (L,C,R,l,r) + LFE ch, ~384 kbps

    MediaInfo

    General
    Complete name : C:\Users\User\Desktop\Private.Peaceful.2012.BDRip.VO_by_LBS.avi
    Format : AVI
    Format/Info : Audio Video Interleave
    File size : 1.46 GiB
    Duration : 1h 38mn
    Overall bit rate : 2 125 Kbps
    Director : Last Boy Scout
    Writing application : VirtualDubMod 1.5.10.3 | www.virtualdub-fr.org || (build 2550/release)
    Copyright : perectracker.org 08.05.2016
    Comment : BDRip VO (студия Райдо)
    Video
    ID : 0
    Format : MPEG-4 Visual
    Format profile : Advanced Simple@L5
    Format settings, BVOP : 1
    Format settings, QPel : No
    Format settings, GMC : No warppoints
    Format settings, Matrix : Custom
    Codec ID : XVID
    Codec ID/Hint : XviD
    Duration : 1h 38mn
    Bit rate : 1 731 Kbps
    Width : 720 pixels
    Height : 384 pixels
    Display aspect ratio : 1.85:1
    Frame rate : 25.000 fps
    Color space : YUV
    Chroma subsampling : 4:2:0
    Bit depth : 8 bits
    Scan type : Progressive
    Compression mode : Lossy
    Bits/(Pixel*Frame) : 0.250
    Stream size : 1.19 GiB (81%)
    Writing library : XviD 73
    Audio
    ID : 1
    Format : AC-3
    Format/Info : Audio Coding 3
    Mode extension : CM (complete main)
    Format settings, Endianness : Big
    Codec ID : 2000
    Duration : 1h 38mn
    Bit rate mode : Constant
    Bit rate : 384 Kbps
    Channel(s) : 6 channels
    Channel positions : Front: L C R, Side: L R, LFE
    Sampling rate : 48.0 KHz
    Bit depth : 16 bits
    Compression mode : Lossy
    Stream size : 270 MiB (18%)
    Alignment : Split accross interleaves
    Interleave, duration : 40 ms (1.00 video frame)
    Interleave, preload duration : 500 ms

    Скриншоты

    -
    Скачать .torrent

    Скачать торрент-файл бесплатно и на максимальной скорости!

    Как скачивать? · Что такое торрент? · Рейтинг и ограничения

    !ВНИМАНИЕ!
    Сайт не распространяет и не хранит электронные версии произведений, а занимается лишь лишь предоставлением доступа к создаваемому пользователями каталогу ссылок на торрент-файлы, которые содержат только списки хеш-сумм, убедительная просьба с жалобами обращаться напрямую к пользователю. Файлы для обмена на трекере предоставлены пользователями сайта, и администрация не несёт ответственности за их содержание. Просьба не заливать файлы, защищенные авторскими правами, а также файлы нелегального содержания!


    _________________
    [Профиль] [ЛС]
    Показать сообщения:    
    Ответить на тему

    Текущее время: Сегодня, в 18:58

    Часовой пояс: GMT + 2



    Вы не можете начинать темы
    Вы не можете отвечать на сообщения
    Вы не можете редактировать свои сообщения
    Вы не можете удалять свои сообщения
    Вы не можете голосовать в опросах
    Вы не можете прикреплять файлы к сообщениям
    Вы не можете скачивать файлы