Register  ·  Log in
Forgot password?

  • Рядовой Писфул / Private Peaceful (Пэт О’Коннор / Pat O\'Connor) [2012, Великобритания, драма, военный, BDRip] VO (студия Райдо)

    Reply to topic
    Author Message


    Post 08-May-2016 11:52



    Рядовой Писфул / Private Peaceful
    Страна: Великобритания
    Жанр: драма, военный
    Годы выпуска: 2012
    Продолжительность: 01:38:19
    Перевод: Одноголосый закадровый студия Райдо
    Субтитры: нет
    Оригинальная аудиодорожка: нет
    Режиссер: Пэт О’Коннор / Pat O'Connor
    В ролях: Джордж МакКэй, Джек О’Коннелл, Александра Роуч, Фрэнсис де ла Тур, Ричард Гриффитс, Джон Линч, Максин Пик, Сэмюэл Боттомли, Хиро Файнс-Тиффин, Иззи Мейкл-Смолл, Анна Картерет, Стивен Кеннеди
    Описание: Когда юный Томмо Писфул уходит добровольцем на фронт, его старший брат Чарли, привыкший всегда защищать Томмо, следует за ним во Фландрию.
    Доп. информация:
    Качество видео: BDRip | marchelush/1080p BD-Remux
    Формат видео: AVI
    Видео: 720x384 (1.88:1), 25 fps, XviD build 73 ~1731 kbps avg, 0.25 bit/pixel
    Аудио: 48 kHz, AC3 Dolby Digital, 3/2 (L,C,R,l,r) + LFE ch, ~384 kbps


    Complete name : C:\Users\User\Desktop\Private.Peaceful.2012.BDRip.VO_by_LBS.avi
    Format : AVI
    Format/Info : Audio Video Interleave
    File size : 1.46 GiB
    Duration : 1h 38mn
    Overall bit rate : 2 125 Kbps
    Director : Last Boy Scout
    Writing application : VirtualDubMod | || (build 2550/release)
    Copyright : 08.05.2016
    Comment : BDRip VO (студия Райдо)
    ID : 0
    Format : MPEG-4 Visual
    Format profile : Advanced Simple@L5
    Format settings, BVOP : 1
    Format settings, QPel : No
    Format settings, GMC : No warppoints
    Format settings, Matrix : Custom
    Codec ID : XVID
    Codec ID/Hint : XviD
    Duration : 1h 38mn
    Bit rate : 1 731 Kbps
    Width : 720 pixels
    Height : 384 pixels
    Display aspect ratio : 1.85:1
    Frame rate : 25.000 fps
    Color space : YUV
    Chroma subsampling : 4:2:0
    Bit depth : 8 bits
    Scan type : Progressive
    Compression mode : Lossy
    Bits/(Pixel*Frame) : 0.250
    Stream size : 1.19 GiB (81%)
    Writing library : XviD 73
    ID : 1
    Format : AC-3
    Format/Info : Audio Coding 3
    Mode extension : CM (complete main)
    Format settings, Endianness : Big
    Codec ID : 2000
    Duration : 1h 38mn
    Bit rate mode : Constant
    Bit rate : 384 Kbps
    Channel(s) : 6 channels
    Channel positions : Front: L C R, Side: L R, LFE
    Sampling rate : 48.0 KHz
    Bit depth : 16 bits
    Compression mode : Lossy
    Stream size : 270 MiB (18%)
    Alignment : Split accross interleaves
    Interleave, duration : 40 ms (1.00 video frame)
    Interleave, preload duration : 500 ms


    Download .torrent

    Download free and at maximum speed!

    How to Download? · What is a torrent? · Ratings and Limitations

    The site does not extend and does not store electronic(digital) versions of products, and only gives access to a reference catalogue created by users on torrent-files which contain only lists of the hash-sums, the earnest entreaty, with complaints(abuse) to access directly to the user. Files for an exchange on tracker are given by users of a site, and the administration does not bear the responsibility for their maintenance. The request to not fill in the files protected by copyrights, and also files of the illegal maintenance!

    [Profile] [PM]
    Display posts from previous:    
    Reply to topic

    The time now is: Today 08:38

    All times are GMT + 3 Hours

    You cannot post new topics in this forum
    You cannot reply to topics in this forum
    You cannot edit your posts in this forum
    You cannot delete your posts in this forum
    You cannot vote in polls in this forum
    You cannot attach files in this forum
    You cannot download files in this forum