BitTorrentTracker PerecTracker.org
BitTorrentTracker PerecTracker.org
    
Регистрация  ·  Вход
 
 · 
Забыли пароль?

  • Гость / The Guest (Адам Вингард / Adam Wingard) [2014, США, Великобритания, триллер, боевик, HDRip] Dub

    Ответить на тему
     
    Автор Сообщение

    Light

    Создавать темы 08-Май-2016 02:40

           

    [Цитировать]

    Гость / The Guest
    Страна: США / USA, Великобритания / Great Britain
    Жанр: триллер, боевик
    Год выпуска: 2014
    Продолжительность: 01:40:24
    Перевод : Профессиональный (дублированный)
    Cубтитры: нет
    Режиссер: Адам Вингард / Adam WingardВ ролях:
    Дэн Стивенс / Dan Stevens - «David»
    Майка Монро / Maika Monroe - Anna Peterson
    Брендан Мейер / Brendan Meyer - Luke Peterson
    Шейла Келли / Sheila Kelley - Laura Peterson
    Лиленд Орсер / Leland Orser - Spencer Peterson
    Лэнс Реддик / Lance Reddick - Major Carver
    Табата Шон / Tabatha Shaun - Kristen
    Чейз Уильямсон / Chase Williamson - Zeke
    Джоэль Мур / Joel Moore - Craig
    и др.
    Описание: Семья Петерсон недавно потеряла на войне в Афганистане своего сына Калеба и все еще оплакивает его. История начинается с появления на пороге их дома таинственного незнакомца Дэвида, который говорит безутешным родителям, что он армейский товарищ их сына и приехал, выполняя тем самым его последнюю волю.
    Родные Калеба рады принять Дэвида. Но вскоре после появления в доме гостя происходит серия странных смертей….Доп. информация:
    Качество видео: HDRip [BDRip 1080p]
    Формат видео: AVI
    Видео кодек: XviD
    Аудио кодек: AC3
    Видео: 720x304 (2,35:1), 23,976 fps, XviD, 1670 kbps avg, 0.318 bit/pixel
    Аудио : Rus 384.00 kbps avg, 48,0 kHz, 3/2 (L,C,R,l,r) + LFE ch, AC3 Dolby Digital Dub

    MediaInfo


    Общее
    Полное имя : C:\Гость.The Guest.2014.Dub.HDRip.by medvezhonokkkk.avi
    Формат : AVI
    Формат/Информация : Audio Video Interleave
    Размер файла : 1,45 Гбайт
    Продолжительность : 1 ч. 40 м.
    Общий поток : 2063 Кбит/сек
    Программа кодирования : VirtualDubMod 1.5.10.3 | www.virtualdub-fr.org || (build 2550/release)
    Библиотека кодирования : VirtualDubMod build 2550/release
    Видео
    Идентификатор : 0
    Формат : MPEG-4 Visual
    Профиль формата : Advanced Simple@L5
    Параметр BVOP формата : 1
    Параметр QPel формата : Нет
    Параметр GMC формата : Без точки перехода
    Параметр матрицы формата : Выборочная
    Идентификатор кодека : XVID
    Идентификатор кодека/Подсказка : XviD
    Продолжительность : 1 ч. 40 м.
    Битрейт : 1670 Кбит/сек
    Ширина : 720 пикселей
    Высота : 304 пикселя
    Соотношение сторон : 2,35:1
    Частота кадров : 23,976 кадра/сек
    Цветовое пространство : YUV
    Субдискретизация насыщенности : 4:2:0
    Битовая глубина : 8 бит
    Тип развёртки : Прогрессивная
    Метод сжатия : С потерями
    Бит/(Пиксели*Кадры) : 0.318
    Размер потока : 1,17 Гбайт (81%)
    Библиотека кодирования : XviD 73
    Аудио
    Идентификатор : 1
    Формат : AC-3
    Формат/Информация : Audio Coding 3
    Расширение режима : CM (complete main)
    Параметр Endianness формата : Big
    Идентификатор кодека : 2000
    Продолжительность : 1 ч. 40 м.
    Вид битрейта : Постоянный
    Битрейт : 384 Кбит/сек
    Каналы : 6 каналов
    Расположение каналов : Front: L C R, Side: L R, LFE
    Частота : 48,0 КГц
    Битовая глубина : 16 бит
    Метод сжатия : С потерями
    Размер потока : 276 Мбайт (19%)
    Выравнивание : Разделение по промежуткам
    Продолжительность промежутка : 42 мс. (1,00 видеокадр)
    Время предзагрузки промежутка : 500 мс.

    Скриншот c названием фильма

    Скриншоты





    / / / Soundtrack (Official) | | | Soundtrack (Unofficial) \ \ \\ \ \ Score (Steve Moore) / / /
    Скачать .torrent

    Скачать торрент-файл бесплатно и на максимальной скорости!

    Как скачивать? · Что такое торрент? · Рейтинг и ограничения

    !ВНИМАНИЕ!
    Сайт не распространяет и не хранит электронные версии произведений, а занимается лишь лишь предоставлением доступа к создаваемому пользователями каталогу ссылок на торрент-файлы, которые содержат только списки хеш-сумм, убедительная просьба с жалобами обращаться напрямую к пользователю. Файлы для обмена на трекере предоставлены пользователями сайта, и администрация не несёт ответственности за их содержание. Просьба не заливать файлы, защищенные авторскими правами, а также файлы нелегального содержания!


    _________________
    [Профиль] [ЛС]
    Показать сообщения:    
    Ответить на тему

    Текущее время: Сегодня, в 06:49

    Часовой пояс: GMT + 2



    Вы не можете начинать темы
    Вы не можете отвечать на сообщения
    Вы не можете редактировать свои сообщения
    Вы не можете удалять свои сообщения
    Вы не можете голосовать в опросах
    Вы не можете прикреплять файлы к сообщениям
    Вы не можете скачивать файлы