BitTorrentTracker PerecTracker.org
BitTorrentTracker PerecTracker.org
    
Регистрация  ·  Вход
 
 · 
Забыли пароль?

  • Молодая кровь / Son of a Gun (Джулиус Эйвери / Julius Avery) [2014, Австралия, Великобритания, Канада, боевик, триллер, драма, BDRip-AVC] MVO + Sub (rus, eng)

    Ответить на тему
     
    Автор Сообщение

    Light

    Создавать темы 08-Май-2016 02:40

           

    [Цитировать]

    Молодая кровь
    Son of a Gun
    «Everyone gets what they deserve»

    Страна: Австралия, Великобритания, Канада
    Жанр: боевик, триллер, драма, криминал
    Год выпуска: 2014
    Продолжительность: 01:48:37
    Перевод: Профессиональный (многоголосый, закадровый) [Лицензия iTunes] озвучено студией "Марафон"
    Cубтитры: русские (полные, 2 вида), английские (полные)
    Оригинальная аудиодорожка: нет
    Режиссер: Джулиус Эйвери / Julius Avery
    В ролях: Юэн МакГрегор, Brendan Kerkvliet, Брентон Туэйтс, Алисия Викандер, Джофф Келсо, Яцек Коман, Мэтью Нэйбл, Питер Нивс, Том Бадж, Эдди Бару, Нэш Эдгертон, Дэймон Херриман
    Описание:
    Попав в тюрьму, Джей заводит знакомство с самым известным преступником Австралии - Брэнданом Линчем. Линч предлагает Джею свое покровительство в тюрьме, а в обмен на это Джей соглашается помочь ему, когда окажется на свободе. Вместе с бандой Линча Джею будет нужно провернуть крупную кражу золота.
    В процессе подготовки к ограблению Джей знакомится с девушкой из банды, Наташей. Они влюбляются друг в друга и начинают подумывать о том, чтобы оставить криминальный мир, но это совсем не входит в планы Брэндана Линча...
    Автор рипа: Stalker oK
    Сэмпл
    Качество видео: BDRip-AVC [rutrаcker / Blu-ray Remux / 1080p]
    Формат видео: MKV
    Видео кодек: AVC
    Аудио кодек: AC3
    Видео: 1536 Кбит/сек, 960x400 (2.40:1), 24 кадр/сек, AVC
    Аудио: русский, 384 Кбит/сек, 48 КГц, 16 бит, 5.1, AC3
    Навигация по главам: есть

    MediaInfo

    Общее
    Уникальный идентификатор : 209529709921114014711767510896203767331 (0x9DA1F44A399D4A6BA81F2F4DA6F39E23)
    Полное имя : M:\Rips\Son of a gun\Son.of.a.Gun.2014.BDRip-AVC.MVO.1.45Gb.stalkerok.new-team.mkv
    Формат : Matroska
    Версия формата : Version 4 / Version 2
    Размер файла : 1,45 Гбайт
    Продолжительность : 1 ч. 48 м.
    Общий поток : 1917 Кбит/сек
    Название фильма : Son of a Gun (2014) (New-Team) (Rip by Stalker oK)
    Дата кодирования : UTC 2016-05-07 11:49:13
    Программа кодирования : mkvmerge v8.6.1 ('Flying') 64bit
    Библиотека кодирования : libebml v1.3.3 + libmatroska v1.4.4
    Видео
    Идентификатор : 1
    Формат : AVC
    Формат/Информация : Advanced Video Codec
    Профиль формата : High@L4.1
    Параметр CABAC формата : Да
    Параметр ReFrames формата : 14 кадров
    Идентификатор кодека : V_MPEG4/ISO/AVC
    Продолжительность : 1 ч. 48 м.
    Битрейт : 1536 Кбит/сек
    Ширина : 960 пикселей
    Высота : 400 пикселей
    Соотношение сторон : 2,40:1
    Режим частоты кадров : Постоянный
    Частота кадров : 24,000 кадра/сек
    Цветовое пространство : YUV
    Субдискретизация насыщенности : 4:2:0
    Битовая глубина : 8 бит
    Тип развёртки : Прогрессивная
    Бит/(Пиксели*Кадры) : 0.167
    Размер потока : 1,16 Гбайт (80%)
    Заголовок : Son of a Gun (2014) (New-Team) (Rip by Stalker oK)
    Библиотека кодирования : x264 core 148 r2638kMod 7599210
    Настройки программы : cabac=1 / ref=14 / deblock=1:-3:-3 / analyse=0x3:0x133 / me=umh / subme=11 / psy=1 / fade_compensate=0.00 / psy_rd=1.00:0.10 / mixed_ref=1 / me_range=48 / chroma_me=1 / trellis=2 / 8x8dct=1 / cqm=0 / deadzone=21,11 / fast_pskip=0 / chroma_qp_offset=-3 / threads=12 / lookahead_threads=3 / sliced_threads=0 / nr=0 / decimate=0 / interlaced=0 / bluray_compat=0 / constrained_intra=0 / fgo=0 / bframes=15 / b_pyramid=2 / b_adapt=2 / b_bias=0 / direct=3 / weightb=1 / open_gop=0 / weightp=2 / keyint=240 / keyint_min=24 / scenecut=40 / intra_refresh=0 / rc_lookahead=60 / rc=2pass / mbtree=0 / bitrate=1536 / ratetol=1.0 / qcomp=0.70 / qpmin=0 / qpmax=69 / qpstep=4 / cplxblur=20.0 / qblur=0.5 / vbv_maxrate=50000 / vbv_bufsize=62500 / nal_hrd=none / filler=0 / ip_ratio=1.40 / pb_ratio=1.30 / aq=3:0.90
    Default : Да
    Forced : Нет
    Аудио
    Идентификатор : 2
    Формат : AC-3
    Формат/Информация : Audio Coding 3
    Расширение режима : CM (complete main)
    Параметр Endianness формата : Big
    Идентификатор кодека : A_AC3
    Продолжительность : 1 ч. 48 м.
    Вид битрейта : Постоянный
    Битрейт : 384 Кбит/сек
    Каналы : 6 каналов
    Расположение каналов : Front: L C R, Side: L R, LFE
    Частота : 48,0 КГц
    Частота кадров : 31,250 кадров/сек (1536 spf)
    Метод сжатия : С потерями
    Размер потока : 298 Мбайт (20%)
    Заголовок : P, MVO [студия "Марафон"]
    Язык : Russian
    Default : Да
    Forced : Нет
    Текст #1
    Идентификатор : 3
    Формат : UTF-8
    Идентификатор кодека : S_TEXT/UTF8
    Идентификатор кодека/Информация : UTF-8 Plain Text
    Продолжительность : 1 ч. 42 м.
    Битрейт : 54 бит/сек
    Count of elements : 962
    Размер потока : 40,6 Кбайт (0%)
    Заголовок : [Antonio] // BD
    Язык : Russian
    Default : Нет
    Forced : Нет
    Текст #2
    Идентификатор : 4
    Формат : UTF-8
    Идентификатор кодека : S_TEXT/UTF8
    Идентификатор кодека/Информация : UTF-8 Plain Text
    Продолжительность : 1 ч. 42 м.
    Битрейт : 53 бит/сек
    Count of elements : 933
    Размер потока : 40,4 Кбайт (0%)
    Заголовок : [Antonio] // WEB
    Язык : Russian
    Default : Нет
    Forced : Нет
    Текст #3
    Идентификатор : 5
    Формат : UTF-8
    Идентификатор кодека : S_TEXT/UTF8
    Идентификатор кодека/Информация : UTF-8 Plain Text
    Продолжительность : 1 ч. 41 м.
    Битрейт : 37 бит/сек
    Count of elements : 933
    Размер потока : 28,1 Кбайт (0%)
    Язык : English
    Default : Нет
    Forced : Нет
    Меню
    00:00:00.000 : en:Opening Sequence
    00:09:10.833 : en:Any Better Suggestions
    00:16:41.708 : en:Walk, Walk
    00:26:40.916 : en:Open The Door
    00:34:41.458 : en:Not Much About Art
    00:44:54.000 : en:Just Dumplings
    00:54:06.708 : en:Kind Of Peaceful
    00:59:34.583 : en:Hold Tight
    01:07:45.000 : en:They Have Guns
    01:13:47.208 : en:Keep Going
    01:23:47.041 : en:The Spot
    01:33:41.125 : en:Any Goon In A Storm?

    Скриншоты

    Скачать .torrent

    Скачать торрент-файл бесплатно и на максимальной скорости!

    Как скачивать? · Что такое торрент? · Рейтинг и ограничения

    !ВНИМАНИЕ!
    Сайт не распространяет и не хранит электронные версии произведений, а занимается лишь лишь предоставлением доступа к создаваемому пользователями каталогу ссылок на торрент-файлы, которые содержат только списки хеш-сумм, убедительная просьба с жалобами обращаться напрямую к пользователю. Файлы для обмена на трекере предоставлены пользователями сайта, и администрация не несёт ответственности за их содержание. Просьба не заливать файлы, защищенные авторскими правами, а также файлы нелегального содержания!


    _________________
    [Профиль] [ЛС]
    Показать сообщения:    
    Ответить на тему

    Текущее время: Сегодня, в 10:41

    Часовой пояс: GMT + 2



    Вы не можете начинать темы
    Вы не можете отвечать на сообщения
    Вы не можете редактировать свои сообщения
    Вы не можете удалять свои сообщения
    Вы не можете голосовать в опросах
    Вы не можете прикреплять файлы к сообщениям
    Вы не можете скачивать файлы