BitTorrentTracker PerecTracker.org
BitTorrentTracker PerecTracker.org
    
Регистрация  ·  Вход
 
 · 
Забыли пароль?

  • Беспредел (Игорь Гостев) [1989, драма, криминал, DVDRip-AVC]

    Ответить на тему
     
    Автор Сообщение

    Flirldrerve

    Создавать темы 07-Май-2016 22:35

           

    [Цитировать]

    Беспредел
    Жанр: драма, криминал
    Год выпуска: 1989
    Продолжительность: 01:36:25
    -
    Режиссёр: Игорь Гостев
    В ролях: Андрей Ташков (Юрий Колганов 'Колган'), Лев Дуров (майор Маркелов), Александр Мохов (Авраамов сын), Сергей Гармаш, Наил Идрисов, Андрей Липихин, Антон Андросов (филателист), Александр Кузнецов (лейтенант), Ирина Аверина, Михаил Чигарев, Александр Числов ('Мойдодыр'), Виктор Павлов (начальник колонии, ИТК), Андрей Щербович-Вечер
    -
    Описание: В исправительной колонии царят жестокие порядки, установленные администрацией и поддерживаемые среди заключенных с помощью воров в законе. Воровская «элита» творит свой суд и расправу над непокорными. Главный герой фильма не пожелал мириться с таким положение дел и вместе с несколькими заключенными, разделяющими его взгляды, попытался изменить беспросветную жизнь колонии. Противостояние двух неравных сил привело к бунту. Власти учинили новый беспредел и жестоко подавили стихийный протест заключенных…
    -
    Доп. информация:
    -
    Сэмпл: http://sendfile.su/1231838
    -
    Качество видео: DVDRip-AVC (DVD5/zim2001)
    Формат видео: MKV
    Видео: 688x574 (1.279:1) @ 734x574, 25 fps, AVC, ~1 970 Kbps, 0.200 bits/pixel
    Аудио: 48 kHz, AC3 Dolby Digital, 2/0 (L,R) ch, ~192 kbps

    MediaInfo

    x264 [info]: frame I:785 Avg QP:20.00 size: 48098
    x264 [info]: frame P:26911 Avg QP:22.76 size: 20633
    x264 [info]: frame B:116936 Avg QP:25.28 size: 7112-General
    Unique ID : 244417636761112963751792175115405061121 (0xB7E11FE2FF64D625B5ADDCF39BDB6C01)
    Complete name : C:\Users\ALEX\Downloads\Фильмы\Беспредел.1989.DVDRip-AVC.x264.AC3.mkv
    Format : Matroska
    Format version : Version 4 / Version 2
    File size : 1.46 GiB
    Duration : 1h 36mn
    Overall bit rate : 2 164 Kbps
    Encoded date : UTC 2016-05-07 18:30:07
    Writing application : mkvmerge v8.5.2 ('Crosses') 64bit
    Writing library : libebml v1.3.3 + libmatroska v1.4.4
    Video
    ID : 1
    Format : AVC
    Format/Info : Advanced Video Codec
    Format profile : High@L4.1
    Format settings, CABAC : Yes
    Format settings, ReFrames : 14 frames
    Codec ID : V_MPEG4/ISO/AVC
    Duration : 1h 36mn
    Bit rate : 1 970 Kbps
    Width : 688 pixels
    Height : 574 pixels
    Display aspect ratio : 1.279
    Frame rate mode : Constant
    Frame rate : 25.000 fps
    Color space : YUV
    Chroma subsampling : 4:2:0
    Bit depth : 8 bits
    Scan type : Progressive
    Bits/(Pixel*Frame) : 0.200
    Stream size : 1.33 GiB (91%)
    Title : Беспредел
    Writing library : x264 core 148 r2638 7599210
    Encoding settings : cabac=1 / ref=14 / deblock=1:-2:-2 / analyse=0x3:0x113 / me=umh / subme=11 / psy=1 / psy_rd=1.00:0.10 / mixed_ref=1 / me_range=32 / chroma_me=1 / trellis=2 / 8x8dct=1 / cqm=0 / deadzone=21,11 / fast_pskip=0 / chroma_qp_offset=-3 / threads=6 / lookahead_threads=1 / sliced_threads=0 / nr=0 / decimate=1 / interlaced=0 / bluray_compat=0 / constrained_intra=0 / bframes=10 / b_pyramid=2 / b_adapt=2 / b_bias=0 / direct=3 / weightb=1 / open_gop=0 / weightp=2 / keyint=250 / keyint_min=25 / scenecut=40 / intra_refresh=0 / rc=2pass / mbtree=0 / bitrate=1970 / ratetol=1.0 / qcomp=0.60 / qpmin=0 / qpmax=69 / qpstep=4 / cplxblur=20.0 / qblur=0.5 / ip_ratio=1.40 / pb_ratio=1.30 / aq=1:1.00
    Language : Russian
    Default : Yes
    Forced : No
    Audio
    ID : 2
    Format : AC-3
    Format/Info : Audio Coding 3
    Mode extension : CM (complete main)
    Format settings, Endianness : Big
    Codec ID : A_AC3
    Duration : 1h 36mn
    Bit rate mode : Constant
    Bit rate : 192 Kbps
    Channel(s) : 2 channels
    Channel positions : Front: L R
    Sampling rate : 48.0 KHz
    Frame rate : 31.250 fps (1536 spf)
    Compression mode : Lossy
    Stream size : 132 MiB (9%)
    Title : Original
    Language : Russian
    Default : Yes
    Forced : No

    Скриншоты

    Скачать .torrent

    Скачать торрент-файл бесплатно и на максимальной скорости!

    Как скачивать? · Что такое торрент? · Рейтинг и ограничения

    !ВНИМАНИЕ!
    Сайт не распространяет и не хранит электронные версии произведений, а занимается лишь лишь предоставлением доступа к создаваемому пользователями каталогу ссылок на торрент-файлы, которые содержат только списки хеш-сумм, убедительная просьба с жалобами обращаться напрямую к пользователю. Файлы для обмена на трекере предоставлены пользователями сайта, и администрация не несёт ответственности за их содержание. Просьба не заливать файлы, защищенные авторскими правами, а также файлы нелегального содержания!


    _________________
    [Профиль] [ЛС]
    Показать сообщения:    
    Ответить на тему

    Текущее время: Сегодня, в 12:48

    Часовой пояс: GMT + 2



    Вы не можете начинать темы
    Вы не можете отвечать на сообщения
    Вы не можете редактировать свои сообщения
    Вы не можете удалять свои сообщения
    Вы не можете голосовать в опросах
    Вы не можете прикреплять файлы к сообщениям
    Вы не можете скачивать файлы