BitTorrentTracker PerecTracker.org
BitTorrentTracker PerecTracker.org
    
Регистрация  ·  Вход
 
 · 
Забыли пароль?

  • Регион 13 / Region 13 (Омар Сункар) [2015, Казахстан, боевик, криминальная драма, WEBRip] + Original Rus

    Ответить на тему
     
    Автор Сообщение

    Light

    Создавать темы 07-Май-2016 22:35

           

    [Цитировать]

    Регион 13 / Region 13Страна: Казахстан / Tengri Studio, Orda Cinema Group
    Жанр: боевик, криминальная драма
    Год выпуска: 2015
    Продолжительность: 01:33:21
    Перевод: Не требуется
    Cубтитры: нет
    Оригинальная аудиодорожка: русский
    Режиссер: Омар Сункар
    В ролях: Омар Сункар, Мейрамхан Суннатиллаев, Гани Нуржигитов, Евгения Гуренкова, Арман Ельденбаев, Тахир Ишметов, Мансур Тулешев
    Описание: Картина повествует о способности самых различных представителей казахстанского общества объединяться перед угрозой внешних разрушительных сил, пытающихся организовать и навязать «цветную» революцию, при помощи ряда иностранных неправительственных организаций, уже проявивших себя, как в Азии, так и на Украине. Операцию по недопущению революции берет на себя, известный в Южном Казахстане, криминальный авторитет Багдат.
    Это первый отечественный фильм, показывающий, как сотрудники казахстанских спецслужб противодействуют международному терроризму в современное время и как предотвращают возможные угрозы, защищая жизнь своих соотечественников.
    Съемки содержат события в Таиланде, Казахстане, Кыргызстане и в Украине.
    Сэмпл: http://multi-up.com/1100596
    Качество видео:WEBRip
    Формат видео: AVI
    Видео: XviD, 640x352(16:9), 23.976 fps, 975 Кбит/сек, 0.181 бит
    Аудио: MPEG Audio, Layer 3, MP3, 48.0 KHz, 2 ch, 128Kbps

    MediaInfo

    Общее
    Полное имя : D:\Регион 13\Регион 13 (2015) WEBRip 745 mb.avi
    Формат : AVI
    Формат/Информация : Audio Video Interleave
    Размер файла : 746 Мбайт
    Продолжительность : 1 ч. 33 м.
    Общий поток : 1116 Кбит/сек
    Программа кодирования : Lavf54.63.104
    Видео
    Идентификатор : 0
    Формат : xvid
    Идентификатор кодека : xvid
    Продолжительность : 1 ч. 33 м.
    Битрейт : 975 Кбит/сек
    Ширина : 640 пикселей
    Высота : 352 пикселя
    Соотношение сторон : 16:9
    Частота кадров : 23,976 кадра/сек
    Тип развёртки : Прогрессивная
    Бит/(Пиксели*Кадры) : 0.181
    Размер потока : 652 Мбайт (87%)
    Аудио
    Идентификатор : 1
    Формат : MPEG Audio
    Версия формата : Version 1
    Профиль формата : Layer 3
    Режим : Joint stereo
    Расширение режима : MS Stereo
    Идентификатор кодека : 55
    Идентификатор кодека/Подсказка : MP3
    Продолжительность : 1 ч. 33 м.
    Вид битрейта : Постоянный
    Битрейт : 128 Кбит/сек
    Каналы : 2 канала
    Частота : 48,0 КГц
    Метод сжатия : С потерями
    Размер потока : 85,5 Мбайт (11%)
    Выравнивание : Соединение по промежуткам
    Продолжительность промежутка : 24 мс. (0,58 видеокадр)
    Библиотека кодирования : LAMEЄѕяююїпяяячЅЬэ

    Скриншот c названием фильма

    Скриншоты

    Скачать .torrent

    Скачать торрент-файл бесплатно и на максимальной скорости!

    Как скачивать? · Что такое торрент? · Рейтинг и ограничения

    !ВНИМАНИЕ!
    Сайт не распространяет и не хранит электронные версии произведений, а занимается лишь лишь предоставлением доступа к создаваемому пользователями каталогу ссылок на торрент-файлы, которые содержат только списки хеш-сумм, убедительная просьба с жалобами обращаться напрямую к пользователю. Файлы для обмена на трекере предоставлены пользователями сайта, и администрация не несёт ответственности за их содержание. Просьба не заливать файлы, защищенные авторскими правами, а также файлы нелегального содержания!


    _________________
    [Профиль] [ЛС]
    Показать сообщения:    
    Ответить на тему

    Текущее время: Сегодня, в 01:17

    Часовой пояс: GMT + 2



    Вы не можете начинать темы
    Вы не можете отвечать на сообщения
    Вы не можете редактировать свои сообщения
    Вы не можете удалять свои сообщения
    Вы не можете голосовать в опросах
    Вы не можете прикреплять файлы к сообщениям
    Вы не можете скачивать файлы