BitTorrentTracker PerecTracker.org
BitTorrentTracker PerecTracker.org
    
Регистрация  ·  Вход
 
 · 
Забыли пароль?

  • Они были солдатами 2 / Saints and Soldiers: Airborne Creed (Райан Литтл / Ryan Little) [2012, США, боевик, драма, военный, BDRip-AVC] DVO + Original (eng) + Sub (eng)

    Ответить на тему
     
    Автор Сообщение

    Light

    Создавать темы 07-Май-2016 18:30

           

    [Цитировать]

    Они были солдатами 2
    Saints and Soldiers: Airborne Creed

    Страна: США
    Жанр: боевик, драма, военный
    Год выпуска: 2012
    Продолжительность: 01:37:58
    Перевод: Профессиональный (двухголосый, закадровый) [НТВ+]
    Субтитры: английские (полные, 2 вида; SDH)
    Оригинальная аудиодорожка: английский
    Режиссер: Райан Литтл / Ryan Little
    В ролях: Корбин Оллред, Дэвид Нибли, Джасен Вэйд, Вирджиния Фуртина Андерсон, Линкольн Хопп, Лоик Энтиан, Лэнс Отто, Рик Мэйси, Тревор Андерсон, Райан Гэйл, Хайрам Палмер, Лэнс Дженсен
    Описание:
    15 августа 1944 года взвод 517-ого парашютно-десантного полка был заброшен на территорию южной Франции для поддержки наступления союзных войск на Берлин. Приземляясь на вражеской территории десантники вступают в непосредственное боестолкновение с противником. При выполнении миссии трое парашютистов встречаются с участниками группы Французского Сопротивления. Они решают помочь, рискуя своей жизнью, французским военным, попавшим в плен к врагу, и тем самым поддержать жизненное Кредо Десантника.
    Автор рипа: Stalker oK
    Сэмпл
    Качество видео: BDRip-AVC [rutrаcker / Blu-ray Remux / 1080p]
    Формат видео: MKV
    Видео кодек: AVC
    Аудио кодек: AC3
    Видео: 2548 Кбит/сек, 1152*490 (2,35:1), в 23,976 (24000/1001) кадра/сек, AVC
    Аудио #1: русский, 192 Кбит/сек, 48,0 КГц, 2 канала, AC-3
    Аудио #2: английский, 448 Кбит/сек, 48,0 КГц, 6 каналов, AC-3
    Навигация по главам: есть

    MediaInfo

    Общее
    Уникальный идентификатор : 217852790056215657073098850597493451360 (0xA3E4EBD2B2DE9A839CC76DC1C892AA60)
    Полное имя : M:\Rips\Saints and Soldiers Airborne Creed\Saints.and.Soldiers.Airborne.Creed.2012.BDRip-AVC.DVO.2.18Gb.stalkerok.new-team.mkv
    Формат : Matroska
    Версия формата : Version 4 / Version 2
    Размер файла : 2,18 Гбайт
    Продолжительность : 1 ч. 37 м.
    Общий поток : 3187 Кбит/сек
    Название фильма : Saints and Soldiers: Airborne Creed (2012) (New-Team) (Rip by Stalker oK)
    Дата кодирования : UTC 2016-05-07 10:38:54
    Программа кодирования : mkvmerge v8.6.1 ('Flying') 64bit
    Библиотека кодирования : libebml v1.3.3 + libmatroska v1.4.4
    Видео
    Идентификатор : 1
    Формат : AVC
    Формат/Информация : Advanced Video Codec
    Профиль формата : High@L4.1
    Параметр CABAC формата : Да
    Параметр ReFrames формата : 14 кадров
    Идентификатор кодека : V_MPEG4/ISO/AVC
    Продолжительность : 1 ч. 37 м.
    Битрейт : 2548 Кбит/сек
    Ширина : 1152 пикселя
    Высота : 490 пикселей
    Соотношение сторон : 2,35:1
    Режим частоты кадров : Постоянный
    Частота кадров : 23,976 (24000/1001) кадра/сек
    Цветовое пространство : YUV
    Субдискретизация насыщенности : 4:2:0
    Битовая глубина : 8 бит
    Тип развёртки : Прогрессивная
    Бит/(Пиксели*Кадры) : 0.188
    Размер потока : 1,74 Гбайт (80%)
    Заголовок : Saints and Soldiers: Airborne Creed (2012) (New-Team) (Rip by Stalker oK)
    Библиотека кодирования : x264 core 148 r2638kMod 7599210
    Настройки программы : cabac=1 / ref=14 / deblock=1:-3:-3 / analyse=0x3:0x133 / me=umh / subme=11 / psy=1 / fade_compensate=0.00 / psy_rd=1.00:0.10 / mixed_ref=1 / me_range=48 / chroma_me=1 / trellis=2 / 8x8dct=1 / cqm=0 / deadzone=21,11 / fast_pskip=0 / chroma_qp_offset=-3 / threads=12 / lookahead_threads=3 / sliced_threads=0 / nr=0 / decimate=0 / interlaced=0 / bluray_compat=0 / constrained_intra=0 / fgo=0 / bframes=15 / b_pyramid=2 / b_adapt=2 / b_bias=0 / direct=3 / weightb=1 / open_gop=0 / weightp=2 / keyint=240 / keyint_min=23 / scenecut=40 / intra_refresh=0 / rc_lookahead=60 / rc=2pass / mbtree=0 / bitrate=2548 / ratetol=1.0 / qcomp=0.70 / qpmin=0 / qpmax=69 / qpstep=4 / cplxblur=20.0 / qblur=0.5 / vbv_maxrate=50000 / vbv_bufsize=62500 / nal_hrd=none / filler=0 / ip_ratio=1.40 / pb_ratio=1.30 / aq=3:0.90
    Default : Да
    Forced : Нет
    Аудио #1
    Идентификатор : 2
    Формат : AC-3
    Формат/Информация : Audio Coding 3
    Расширение режима : CM (complete main)
    Параметр Endianness формата : Big
    Идентификатор кодека : A_AC3
    Продолжительность : 1 ч. 37 м.
    Вид битрейта : Постоянный
    Битрейт : 192 Кбит/сек
    Каналы : 2 канала
    Расположение каналов : Front: L R
    Частота : 48,0 КГц
    Частота кадров : 31,250 кадров/сек (1536 spf)
    Метод сжатия : С потерями
    Размер потока : 135 Мбайт (6%)
    Заголовок : Профессиональный (двухголосый закадровый) НТВ+
    Язык : Russian
    Default : Да
    Forced : Нет
    Аудио #2
    Идентификатор : 3
    Формат : AC-3
    Формат/Информация : Audio Coding 3
    Расширение режима : CM (complete main)
    Параметр Endianness формата : Big
    Идентификатор кодека : A_AC3
    Продолжительность : 1 ч. 37 м.
    Вид битрейта : Постоянный
    Битрейт : 448 Кбит/сек
    Каналы : 6 каналов
    Расположение каналов : Front: L C R, Side: L R, LFE
    Частота : 48,0 КГц
    Частота кадров : 31,250 кадров/сек (1536 spf)
    Метод сжатия : С потерями
    Размер потока : 314 Мбайт (14%)
    Язык : English
    Default : Нет
    Forced : Нет
    Текст #1
    Идентификатор : 4
    Формат : UTF-8
    Идентификатор кодека : S_TEXT/UTF8
    Идентификатор кодека/Информация : UTF-8 Plain Text
    Продолжительность : 1 ч. 32 м.
    Битрейт : 34 бит/сек
    Count of elements : 716
    Размер потока : 23,3 Кбайт (0%)
    Заголовок : полные v1
    Язык : English
    Default : Нет
    Forced : Нет
    Текст #2
    Идентификатор : 5
    Формат : UTF-8
    Идентификатор кодека : S_TEXT/UTF8
    Идентификатор кодека/Информация : UTF-8 Plain Text
    Продолжительность : 1 ч. 28 м.
    Битрейт : 34 бит/сек
    Count of elements : 886
    Размер потока : 22,4 Кбайт (0%)
    Заголовок : полные v2
    Язык : English
    Default : Нет
    Forced : Нет
    Текст #3
    Идентификатор : 6
    Формат : UTF-8
    Идентификатор кодека : S_TEXT/UTF8
    Идентификатор кодека/Информация : UTF-8 Plain Text
    Продолжительность : 1 ч. 31 м.
    Битрейт : 36 бит/сек
    Count of elements : 1013
    Размер потока : 24,2 Кбайт (0%)
    Заголовок : SDH
    Язык : English
    Default : Нет
    Forced : Нет
    Меню
    00:00:00.000 : en:Execution
    00:10:52.000 : en:"What do you think about?"
    00:23:08.125 : en:Flashback
    00:32:04.167 : en:Resistance
    00:47:00.000 : en:Shots
    00:56:31.000 : en:Smoke & Mirrors
    01:04:02.000 : en:Attack
    01:17:23.000 : en:Erich Neumann
    01:22:03.000 : en:Tired
    01:25:46.500 : en:Luger
    01:28:57.250 : en:Real Name
    01:32:20.000 : en:Credits

    Скриншоты

    Скачать .torrent

    Скачать торрент-файл бесплатно и на максимальной скорости!

    Как скачивать? · Что такое торрент? · Рейтинг и ограничения

    !ВНИМАНИЕ!
    Сайт не распространяет и не хранит электронные версии произведений, а занимается лишь лишь предоставлением доступа к создаваемому пользователями каталогу ссылок на торрент-файлы, которые содержат только списки хеш-сумм, убедительная просьба с жалобами обращаться напрямую к пользователю. Файлы для обмена на трекере предоставлены пользователями сайта, и администрация не несёт ответственности за их содержание. Просьба не заливать файлы, защищенные авторскими правами, а также файлы нелегального содержания!


    _________________
    [Профиль] [ЛС]
    Показать сообщения:    
    Ответить на тему

    Текущее время: Сегодня, в 10:55

    Часовой пояс: GMT + 2



    Вы не можете начинать темы
    Вы не можете отвечать на сообщения
    Вы не можете редактировать свои сообщения
    Вы не можете удалять свои сообщения
    Вы не можете голосовать в опросах
    Вы не можете прикреплять файлы к сообщениям
    Вы не можете скачивать файлы