BitTorrentTracker PerecTracker.org
BitTorrentTracker PerecTracker.org
    
Регистрация  ·  Вход
 
 · 
Забыли пароль?

  • Незабываемое / Unforgettable (Джон Дал / John Dahl) [1996, США, фантастика, триллер, драма, детектив, BDRip 720p] MVO + AVO (Карцев) + UKR (TBi) + Original Eng + Sub (Rus, Eng)

    Ответить на тему
     
    Автор Сообщение

    Light

    Создавать темы 07-Май-2016 14:25

           

    [Цитировать]

    Незабываемое / Unforgettable-Год выпуска: 1996
    Страна: США
    Жанр: фантастика, триллер, драма, детектив
    Продолжительность: 01:56:58
    Перевод: Профессиональный (двухголосый, закадровый)
    + Авторский одноголосый П.Карцев
    Оригинальная звуковая дорожка: English
    Субтитры: Russian, English-Режиссер: Джон Дал / John Dahl
    В ролях: Рэй Лиотта, Линда Фиорентино, Питер Койот, Кристофер МакДональд, Дэвид Пэймер, Дункан Фрайзер, Кэролайн Эллиотт, Коллин Реннисон, Ким Кэтролл, Стеллина Русиш
    О фильме: Жена судмедэксперта Дэвида Крэйна была зверски убита, а сам Дэвид в состоянии алкогольного опьянения находился рядом, где и был задержан полицией. Суд снял с Дэвида обвинение в убийстве, но лишил его права воспитывать детей.
    Случайно услышав доклад нейробиолога Марты Бриггс, Дэвид принимает решение стать подопытной крысой. Дело в том, что, если ввести себе спинномозговую жидкость мертвого человека, то можно видеть произошедшее перед смертью его глазами. Несколько инъекций, и Дэвид раскрывает жуткое преступление. Однако, жизнь самого Дэвида теперь висит на волоске - выберется он из этого эксперимента или погибнет, как погибает каждое восьмое подопытное животное?-CtrlHD!
    Источник: Unforgettable 1996 1080p Blu-ray AVC DTS-HD MA 5.1-rmHD
    Тип релиза: BDRip 720p
    Формат: MKV
    Видео: 1280x692 at 23.976 fps, x.264@L4.1, ~8893 kbps avg
    Аудио #01: Russian: 48 kHz, AC3, 3/2 (L,C,R,l,r) + LFE ch, ~384 kbps avg |Двухголосый закадровый|
    Аудио #02: Russian: 48 kHz/16-bit, DTS, 3/2 (L,C,R,l,r) + LFE ch, ~1536 kbps avg |Одноголосый закадровый, П.Карцев|
    Аудио #03: Ukrainian: 48 kHz, AC3, 2/0 (L,R) ch, ~192 kbps avg |Двухголосый закадровый, TBi|
    Аудио #04: English: 48 kHz/16-bit, DTS, 3/2 (L,C,R,l,r) + LFE ch, ~1536 kbps avg
    Семпл-

    Source vs Encode







    -

    mInfo

    Уникальный идентификатор : 179368874427281061374173830115660154899 (0x86F1304A6309730CAF8F12E980684813)
    Полное имя : Unforgettable.1996.720p.BluRay.2xRus.Ukr.Eng.HDCLUB.mkv
    Формат : Matroska
    Версия формата : Version 2
    Размер файла : 10,2 Гбайт
    Продолжительность : 1 ч. 56 м.
    Общий поток : 12,5 Мбит/сек
    Название фильма : Unforgettable (1996) - Release for HDCLUB
    Дата кодирования : UTC 2016-05-05 15:12:13
    Программа кодирования : mkvmerge v5.2.0 ('I can't explain') built on Dec 18 2011 18:12:03
    Библиотека кодирования : libebml v1.2.3 + libmatroska v1.3.0
    Видео
    Идентификатор : 1
    Формат : AVC
    Формат/Информация : Advanced Video Codec
    Профиль формата : High@L4.1
    Параметр CABAC формата : Да
    Параметр ReFrames формата : 9 кадров
    Идентификатор кодека : V_MPEG4/ISO/AVC
    Продолжительность : 1 ч. 56 м.
    Битрейт : 8648 Кбит/сек
    Ширина : 1280 пикселей
    Высота : 692 пикселя
    Соотношение сторон : 1,85:1
    Режим частоты кадров : Постоянный
    Частота кадров : 23,976 (24000/1001) кадра/сек
    Цветовое пространство : YUV
    Субдискретизация насыщенности : 4:2:0
    Битовая глубина : 8 бит
    Тип развёртки : Прогрессивная
    Бит/(Пиксели*Кадры) : 0.407
    Размер потока : 7,07 Гбайт (69%)
    Библиотека кодирования : x264 core 148 r2665kMod a01e339
    Настройки программы : cabac=1 / ref=9 / deblock=1:-3:-3 / analyse=0x3:0x133 / me=umh / subme=10 / psy=1 / fade_compensate=0.00 / psy_rd=0.95:0.00 / mixed_ref=1 / me_range=32 / chroma_me=1 / trellis=2 / 8x8dct=1 / cqm=0 / deadzone=21,11 / fast_pskip=0 / chroma_qp_offset=-2 / threads=6 / lookahead_threads=1 / sliced_threads=0 / nr=0 / decimate=0 / interlaced=0 / bluray_compat=0 / constrained_intra=0 / fgo=0 / bframes=8 / b_pyramid=2 / b_adapt=2 / b_bias=0 / direct=3 / weightb=1 / open_gop=0 / weightp=2 / keyint=250 / keyint_min=23 / scenecut=40 / intra_refresh=0 / rc=crf / mbtree=0 / crf=18.0000 / qcomp=0.60 / qpmin=0 / qpmax=69 / qpstep=4 / ip_ratio=1.40 / pb_ratio=1.30 / aq=3:0.90
    Язык : English
    Default : Да
    Forced : Нет
    Аудио #1
    Идентификатор : 2
    Формат : AC-3
    Формат/Информация : Audio Coding 3
    Расширение режима : CM (complete main)
    Параметр Endianness формата : Big
    Идентификатор кодека : A_AC3
    Продолжительность : 1 ч. 56 м.
    Вид битрейта : Постоянный
    Битрейт : 384 Кбит/сек
    Каналы : 6 каналов
    Расположение каналов : Front: L C R, Side: L R, LFE
    Частота : 48,0 КГц
    Частота кадров : 31,250 кадров/сек (1536 spf)
    Метод сжатия : С потерями
    Размер потока : 321 Мбайт (3%)
    Заголовок : |Двухголосый закадровый|
    Язык : Russian
    Default : Да
    Forced : Нет
    Аудио #2
    Идентификатор : 3
    Формат : DTS
    Формат/Информация : Digital Theater Systems
    Режим : 16
    Параметр Endianness формата : Big
    Идентификатор кодека : A_DTS
    Продолжительность : 1 ч. 56 м.
    Вид битрейта : Постоянный
    Битрейт : 1509 Кбит/сек
    Каналы : 6 каналов
    Расположение каналов : Front: L C R, Side: L R, LFE
    Частота : 48,0 КГц
    Частота кадров : 93,750 кадра/сек (512 spf)
    Битовая глубина : 24 бит
    Метод сжатия : С потерями
    Размер потока : 1,23 Гбайт (12%)
    Заголовок : |Одноголосый закадровый, П.Карцев|
    Язык : Russian
    Default : Нет
    Forced : Нет
    Аудио #3
    Идентификатор : 4
    Формат : AC-3
    Формат/Информация : Audio Coding 3
    Расширение режима : CM (complete main)
    Параметр Endianness формата : Big
    Идентификатор кодека : A_AC3
    Продолжительность : 1 ч. 56 м.
    Вид битрейта : Постоянный
    Битрейт : 192 Кбит/сек
    Каналы : 2 канала
    Расположение каналов : Front: L R
    Частота : 48,0 КГц
    Частота кадров : 31,250 кадров/сек (1536 spf)
    Метод сжатия : С потерями
    Размер потока : 161 Мбайт (2%)
    Заголовок : |Двухголосый закадровый, TBi|
    Язык : Ukrainian
    Default : Нет
    Forced : Нет
    Аудио #4
    Идентификатор : 5
    Формат : DTS
    Формат/Информация : Digital Theater Systems
    Режим : 16
    Параметр Endianness формата : Big
    Идентификатор кодека : A_DTS
    Продолжительность : 1 ч. 56 м.
    Вид битрейта : Постоянный
    Битрейт : 1509 Кбит/сек
    Каналы : 6 каналов
    Расположение каналов : Front: L C R, Side: L R, LFE
    Частота : 48,0 КГц
    Частота кадров : 93,750 кадра/сек (512 spf)
    Битовая глубина : 24 бит
    Метод сжатия : С потерями
    Размер потока : 1,23 Гбайт (12%)
    Язык : English
    Default : Нет
    Forced : Нет
    Текст #1
    Идентификатор : 6
    Формат : UTF-8
    Идентификатор кодека : S_TEXT/UTF8
    Идентификатор кодека/Информация : UTF-8 Plain Text
    Язык : Russian
    Default : Нет
    Forced : Нет
    Текст #2
    Идентификатор : 7
    Формат : UTF-8
    Идентификатор кодека : S_TEXT/UTF8
    Идентификатор кодека/Информация : UTF-8 Plain Text
    Язык : English
    Default : Нет
    Forced : Нет
    Меню
    00:00:00.000 : en:00:00:00.000
    00:09:55.094 : en:00:09:55.094
    00:23:30.534 : en:00:23:30.534
    00:41:35.535 : en:00:41:35.535
    00:56:45.652 : en:00:56:45.652
    01:09:40.093 : en:01:09:40.093
    01:25:04.099 : en:01:25:04.099
    01:36:02.298 : en:01:36:02.298

    -
    Цитата:
    Цитата:

    * За синхронизацию звуковых дорожек большое спасибо Elheym.
    Скачать .torrent

    Скачать торрент-файл бесплатно и на максимальной скорости!

    Как скачивать? · Что такое торрент? · Рейтинг и ограничения

    !ВНИМАНИЕ!
    Сайт не распространяет и не хранит электронные версии произведений, а занимается лишь лишь предоставлением доступа к создаваемому пользователями каталогу ссылок на торрент-файлы, которые содержат только списки хеш-сумм, убедительная просьба с жалобами обращаться напрямую к пользователю. Файлы для обмена на трекере предоставлены пользователями сайта, и администрация не несёт ответственности за их содержание. Просьба не заливать файлы, защищенные авторскими правами, а также файлы нелегального содержания!


    _________________
    [Профиль] [ЛС]
    Показать сообщения:    
    Ответить на тему

    Текущее время: Сегодня, в 15:00

    Часовой пояс: GMT + 2



    Вы не можете начинать темы
    Вы не можете отвечать на сообщения
    Вы не можете редактировать свои сообщения
    Вы не можете удалять свои сообщения
    Вы не можете голосовать в опросах
    Вы не можете прикреплять файлы к сообщениям
    Вы не можете скачивать файлы