Register  ·  Log in
Forgot password?

  • Выживший / The Revenant (Алехандро Гонсалес Иньярриту / Alejandro G. Inarritu) [2015, США, Гонконг, Тайвань, Канада, триллер, драма, приключения, вестерн, BDRip] Dub

    Reply to topic
    Author Message


    Post 07-May-2016 15:25



    Выживший / The Revenant
    Страна: США, Гонконг, Тайвань, Канада
    Жанр: триллер, драма, приключения, вестерн
    Годы выпуска: 2015
    Продолжительность: 02:36:21
    Перевод: Профессиональный (дублированный)
    Субтитры: русские форсированные
    Оригинальная аудиодорожка: нет
    Режиссер: Алехандро Гонсалес Иньярриту / Alejandro G. Iñárritu
    В ролях: Леонардо ДиКаприо, Том Харди, Донал Глисон, Уилл Поултер, Форрест Гудлак, Дуан Ховард, Артур РедКлауд, Мила Нахеко, Грэйс Дав, Лукас Хаас, Пол Андерсон, Кристоффер Йонер
    Описание: Охотник Хью Гласс серьезно ранен на неизведанных просторах американского Дикого Запада. Товарищ Хью по отряду покорителей новых земель Джон Фицжеральд предательски оставляет его умирать в одиночестве. Теперь у Гласса осталось только одно оружие — его сила воли. Он готов бросить вызов первобытной природе, суровой зиме и враждебным племенам индейцев, только чтобы выжить и отомстить Фицжеральду.
    Доп. информация:
    Качество видео: BDRip | crazy_gringo/Blu-ray NORDiC
    Формат видео: AVI
    Видео: 720x304 (2.37:1), 23.976 fps, XviD build 73 ~1602 kbps avg, 0.30 bit/pixel
    Аудио: 48 kHz, AC3 Dolby Digital, 3/2 (L,C,R,l,r) + LFE ch, ~384 kbps
    Формат субтитров: softsub (SRT)


    Complete name : C:\Users\User\Desktop\The.Revenant.2015.BDRip.Dub.Sub_by_LBS\The.Revenant.2015.BDRip.Dub_by_LBS.avi
    Format : AVI
    Format/Info : Audio Video Interleave
    Format profile : OpenDML
    File size : 2.18 GiB
    Duration : 2h 36mn
    Overall bit rate : 1 997 Kbps
    Director : Last Boy Scout
    Writing application : VirtualDubMod | || (build 2550/release)
    Copyright : 07.05.2016
    Comment : BDRip Dub
    ID : 0
    Format : MPEG-4 Visual
    Format profile : Advanced Simple@L5
    Format settings, BVOP : 1
    Format settings, QPel : No
    Format settings, GMC : No warppoints
    Format settings, Matrix : Custom
    Codec ID : XVID
    Codec ID/Hint : XviD
    Duration : 2h 36mn
    Bit rate : 1 602 Kbps
    Width : 720 pixels
    Height : 304 pixels
    Display aspect ratio : 2.35:1
    Frame rate : 23.976 fps
    Color space : YUV
    Chroma subsampling : 4:2:0
    Bit depth : 8 bits
    Scan type : Progressive
    Compression mode : Lossy
    Bits/(Pixel*Frame) : 0.305
    Stream size : 1.75 GiB (80%)
    Writing library : XviD 73
    ID : 1
    Format : AC-3
    Format/Info : Audio Coding 3
    Mode extension : CM (complete main)
    Format settings, Endianness : Big
    Codec ID : 2000
    Duration : 2h 36mn
    Bit rate mode : Constant
    Bit rate : 384 Kbps
    Channel(s) : 6 channels
    Channel positions : Front: L C R, Side: L R, LFE
    Sampling rate : 48.0 KHz
    Bit depth : 16 bits
    Compression mode : Lossy
    Stream size : 429 MiB (19%)
    Alignment : Split accross interleaves
    Interleave, duration : 42 ms (1.00 video frame)
    Interleave, preload duration : 500 ms


    Download .torrent

    Download free and at maximum speed!

    How to Download? · What is a torrent? · Ratings and Limitations

    The site does not extend and does not store electronic(digital) versions of products, and only gives access to a reference catalogue created by users on torrent-files which contain only lists of the hash-sums, the earnest entreaty, with complaints(abuse) to access directly to the user. Files for an exchange on tracker are given by users of a site, and the administration does not bear the responsibility for their maintenance. The request to not fill in the files protected by copyrights, and also files of the illegal maintenance!

    [Profile] [PM]
    Display posts from previous:    
    Reply to topic

    The time now is: Today 23:31

    All times are GMT + 3 Hours

    You cannot post new topics in this forum
    You cannot reply to topics in this forum
    You cannot edit your posts in this forum
    You cannot delete your posts in this forum
    You cannot vote in polls in this forum
    You cannot attach files in this forum
    You cannot download files in this forum