BitTorrentTracker PerecTracker.org
BitTorrentTracker PerecTracker.org
    
Регистрация  ·  Вход
 
 · 
Забыли пароль?

  • Безбрачная неделя / Hall Pass (Бобби Фаррелли / Bobby Farrelly, Питер Фаррелли / Peter Farrelly) [2011, США, комедия, мелодрама, TVRip] [Театральная версия] Dub

    Ответить на тему
     
    Автор Сообщение

    Light

    Создавать темы 07-Май-2016 10:20

           

    [Цитировать]

    Безбрачная неделя / Hall Pass / Театральная версия
    Страна: США
    Жанр: комедия, мелодрама
    Год выпуска: 2011
    Продолжительность: 1:40:28
    Перевод: Профессиональный (дублированный)
    Cубтитры: нет
    Режиссер: Бобби Фаррелли / Bobby Farrelly, Питер Фаррелли / Peter Farrelly
    В ролях: Оуэн Уилсон, Джейсон Судейкис, Дженна Фишер, Кристина Эпплгейт, Никки Уилан, Ричард Дженкинс, Стивен Мерчант, Ларри Джо Кэмпбелл, Брюс Томас, Тайлер Хёхлин и др.
    Описание: Главный герой получает от своей супруги разрешение на свободные отношения с другими женщинами. Похожая ситуация возникает и в семье его лучшего друга. Когда жены героев также решают воспользоваться подобным «пропуском», история принимает новый оборот.
    Доп. информация: Open Matte
    Сэмпл: http://www.sendspace.com/file/6rhv7i
    Качество видео: TVRip
    Формат видео: AVI
    Видео: xvid, 704x400, 16:9, 25 fps, 1794 Kbps
    Аудио: MP3, 48 KHz, 192 Kbps, Dual mono

    MediaInfo

    General
    Complete name : D:\Безбрачная неделя (Open Matte) 2011.avi
    Format : AVI
    Format/Info : Audio Video Interleave
    File size : 1.40 GiB
    Duration : 1h 40mn
    Overall bit rate : 1 996 Kbps
    Writing library : VirtualDub build 32706/release
    Video
    ID : 0
    Format : xvid
    Codec ID : xvid
    Duration : 1h 40mn
    Bit rate : 1 794 Kbps
    Width : 704 pixels
    Height : 400 pixels
    Display aspect ratio : 16:9
    Frame rate : 25.000 fps
    Bits/(Pixel*Frame) : 0.255
    Stream size : 1.26 GiB (90%)
    Audio
    ID : 1
    Format : MPEG Audio
    Format version : Version 1
    Format profile : Layer 3
    Mode : Dual mono
    Codec ID : 55
    Codec ID/Hint : MP3
    Duration : 1h 40mn
    Bit rate mode : Constant
    Bit rate : 192 Kbps
    Channel(s) : 2 channels
    Sampling rate : 48.0 KHz
    Compression mode : Lossy
    Stream size : 138 MiB (10%)
    Alignment : Split accross interleaves
    Interleave, duration : 40 ms (1.00 video frame)
    Interleave, preload duration : 500 ms

    Скриншоты

    Скачать .torrent

    Скачать торрент-файл бесплатно и на максимальной скорости!

    Как скачивать? · Что такое торрент? · Рейтинг и ограничения

    !ВНИМАНИЕ!
    Сайт не распространяет и не хранит электронные версии произведений, а занимается лишь лишь предоставлением доступа к создаваемому пользователями каталогу ссылок на торрент-файлы, которые содержат только списки хеш-сумм, убедительная просьба с жалобами обращаться напрямую к пользователю. Файлы для обмена на трекере предоставлены пользователями сайта, и администрация не несёт ответственности за их содержание. Просьба не заливать файлы, защищенные авторскими правами, а также файлы нелегального содержания!


    _________________
    [Профиль] [ЛС]
    Показать сообщения:    
    Ответить на тему

    Текущее время: Сегодня, в 10:46

    Часовой пояс: GMT + 2



    Вы не можете начинать темы
    Вы не можете отвечать на сообщения
    Вы не можете редактировать свои сообщения
    Вы не можете удалять свои сообщения
    Вы не можете голосовать в опросах
    Вы не можете прикреплять файлы к сообщениям
    Вы не можете скачивать файлы