BitTorrentTracker PerecTracker.org
BitTorrentTracker PerecTracker.org
    
Регистрация  ·  Вход
 
 · 
Забыли пароль?

  • Гость / The Guest (Адам Вингард / Adam Wingard) [2014, США, Великобритания, триллер, боевик, HDRip] Dub

    Ответить на тему
     
    Автор Сообщение

    Light

    Создавать темы 07-Май-2016 10:20

           

    [Цитировать]

    Гость / The Guest
    Страна: США / USA, Великобритания / Great Britain
    Жанр: триллер, боевик
    Год выпуска: 2014
    Продолжительность: 01:40:24
    Перевод : Профессиональный (дублированный)
    Cубтитры: нет
    Режиссер: Адам Вингард / Adam WingardВ ролях:
    Дэн Стивенс / Dan Stevens - «David»
    Майка Монро / Maika Monroe - Anna Peterson
    Брендан Мейер / Brendan Meyer - Luke Peterson
    Шейла Келли / Sheila Kelley - Laura Peterson
    Лиленд Орсер / Leland Orser - Spencer Peterson
    Лэнс Реддик / Lance Reddick - Major Carver
    Табата Шон / Tabatha Shaun - Kristen
    Чейз Уильямсон / Chase Williamson - Zeke
    Джоэль Мур / Joel Moore - Craig
    и др.
    Описание: Семья Петерсон недавно потеряла на войне в Афганистане своего сына Калеба и все еще оплакивает его. История начинается с появления на пороге их дома таинственного незнакомца Дэвида, который говорит безутешным родителям, что он армейский товарищ их сына и приехал, выполняя тем самым его последнюю волю.
    Родные Калеба рады принять Дэвида. Но вскоре после появления в доме гостя происходит серия странных смертей….Доп. информация:
    Качество видео: HDRip [исходник: BDRip 1080p]
    Формат видео: AVI
    Видео кодек: XviD
    Аудио кодек: MP3
    Видео: 688x288 (2,40:1), 23,976 fps, XviD, 900 kbps avg, 0.318 bit/pixel
    Аудио : Rus 128.00 kbps avg, 48,0 kHz, 2 ch, MPEG Layer 3 Dub

    MediaInfo


    Общее
    Полное имя : C:\Гость.The Guest.[745 MB].2014.Dub.HDRip.by medvezhonokkkk.avi
    Формат : AVI
    Формат/Информация : Audio Video Interleave
    Размер файла : 745 Мбайт
    Продолжительность : 1 ч. 40 м.
    Общий поток : 1037 Кбит/сек
    Программа кодирования : VirtualDubMod 1.5.10.3 | www.virtualdub-fr.org || (build 2550/release)
    Библиотека кодирования : VirtualDubMod build 2550/release
    Видео
    Идентификатор : 0
    Формат : MPEG-4 Visual
    Профиль формата : Advanced Simple@L5
    Параметр BVOP формата : 1
    Параметр QPel формата : Нет
    Параметр GMC формата : Без точки перехода
    Параметр матрицы формата : Выборочная
    Идентификатор кодека : XVID
    Идентификатор кодека/Подсказка : XviD
    Продолжительность : 1 ч. 40 м.
    Битрейт : 900 Кбит/сек
    Ширина : 688 пикселей
    Высота : 288 пикселей
    Соотношение сторон : 2,40:1
    Частота кадров : 23,976 кадра/сек
    Цветовое пространство : YUV
    Субдискретизация насыщенности : 4:2:0
    Битовая глубина : 8 бит
    Тип развёртки : Прогрессивная
    Метод сжатия : С потерями
    Бит/(Пиксели*Кадры) : 0.189
    Размер потока : 646 Мбайт (87%)
    Библиотека кодирования : XviD 73
    Аудио
    Идентификатор : 1
    Формат : MPEG Audio
    Версия формата : Version 1
    Профиль формата : Layer 3
    Идентификатор кодека : 55
    Идентификатор кодека/Подсказка : MP3
    Продолжительность : 1 ч. 40 м.
    Вид битрейта : Постоянный
    Битрейт : 128 Кбит/сек
    Каналы : 2 канала
    Частота : 48,0 КГц
    Метод сжатия : С потерями
    Размер потока : 91,9 Мбайт (12%)
    Выравнивание : Соединение по промежуткам
    Продолжительность промежутка : 42 мс. (1,00 видеокадр)
    Время предзагрузки промежутка : 504 мс.
    Библиотека кодирования : LAME3.99r
    Настройки программы : -m s -V 4 -q 2 -lowpass 17 -b 128

    Скриншот c названием фильма

    Скриншоты





    / / / Soundtrack (Official) | | | Soundtrack (Unofficial) \ \ \\ \ \ Score (Steve Moore) / / /
    Скачать .torrent

    Скачать торрент-файл бесплатно и на максимальной скорости!

    Как скачивать? · Что такое торрент? · Рейтинг и ограничения

    !ВНИМАНИЕ!
    Сайт не распространяет и не хранит электронные версии произведений, а занимается лишь лишь предоставлением доступа к создаваемому пользователями каталогу ссылок на торрент-файлы, которые содержат только списки хеш-сумм, убедительная просьба с жалобами обращаться напрямую к пользователю. Файлы для обмена на трекере предоставлены пользователями сайта, и администрация не несёт ответственности за их содержание. Просьба не заливать файлы, защищенные авторскими правами, а также файлы нелегального содержания!


    _________________
    [Профиль] [ЛС]
    Показать сообщения:    
    Ответить на тему

    Текущее время: Сегодня, в 23:59

    Часовой пояс: GMT + 2



    Вы не можете начинать темы
    Вы не можете отвечать на сообщения
    Вы не можете редактировать свои сообщения
    Вы не можете удалять свои сообщения
    Вы не можете голосовать в опросах
    Вы не можете прикреплять файлы к сообщениям
    Вы не можете скачивать файлы