BitTorrentTracker PerecTracker.org
BitTorrentTracker PerecTracker.org
    
Регистрация  ·  Вход
 
 · 
Забыли пароль?

  • Треугольник / Triangle (Кристофер Смит / Christopher Smith) [2009, Великобритания, Австралия, детектив, триллер, мистика, BDRip 720p] DVO (R5) + MVO (ТВ3) + AVO (Ю. Немахов) + UKR + Original Eng + Sub (Rus, Eng)

    Ответить на тему
     
    Автор Сообщение

    Light

    Создавать темы 06-Май-2016 21:59

           

    [Цитировать]

    Треугольник / Triangle-Страна: Великобритания, Австралия
    Жанр: детектив, триллер, мистика
    Год выпуска: 2009
    Продолжительность: 01:38:52
    Перевод 1: Профессиональный (двухголосый закадровый) R5
    Перевод 2: Профессиональный (многоголосый закадровый) ТВ3
    Перевод 3: Авторский (одноголосый закадровый) Ю. Немахов
    Cубтитры: русские, английские
    Оригинальная аудиодорожка: английский-Режиссер: Кристофер Смит / Christopher Smith
    В ролях: Мелисса Джордж, Джошуа МакИвор, Джек Тейлор, Майкл Дорман, Генри Никсон, Рейчал Карпани, Эмма Ланг, Лиам Хемсворт, Брайан Пробетс-Описание: Грег приглашает свою подругу Джесс, молодую мать-одиночку, провести день на яхте в кругу своих друзей. Начавшийся сильный шторм переворачивает судно, и оставшиеся в живых вынуждены дожидаться помощи, цепляясь за перевернутый корпус яхты. Спасение приходит в виде огромного океанического лайнера. Судно оказывается пустым, часы на борту остановились. Но они не одни на этом огромном корабле — за ними кто-то неустанно следит…- -Качество видео: BDRip 720p
    Формат видео: MKV
    Видео: x.264, 1280x544, 5885 kbps, 24 fps, 0.352 bpf
    Аудио 1: AC3, 448 kbps, 5.1 channels, 48000 Hz - R5
    Аудио 2: AC3, 448 kbps, 5.1 channels, 48000 Hz - ТВ3
    Аудио 3: DTS, 1509 kbps, 5.1 channels, 48000 Hz - Ю.Немахов
    Аудио 4: AC3, 192 kbps, 2.0 channels, 48000 Hz - UKR - НЛО.TV
    Аудио 5: DTS, 1509 kbps, 5.1 channels, 48000 Hz - ENG
    Формат субтитров: softsub (SRT) - русские (2 вида), английские-

    Скриншоты


    Резервные скриншоты



    -

    MediaInfo

    Format : Matroska
    Format version : Version 2
    File size : 6.90 GiB
    Duration : 1h 38mn
    Overall bit rate : 9 987 Kbps
    Movie name : Треугольник / Triangle (2009) BDRip 720p
    Encoded date : UTC 2016-05-05 16:45:50
    Writing application : mkvmerge v7.7.0 ('Six Voices') 32bit built on Feb 28 2015 23:23:00
    Writing library : libebml v1.3.1 + libmatroska v1.4.2
    Cover : Yes
    Attachments : cover.png
    Video
    ID : 1
    Format : AVC
    Format/Info : Advanced Video Codec
    Format profile : High@L4.1
    Format settings, CABAC : Yes
    Format settings, ReFrames : 12 frames
    Codec ID : V_MPEG4/ISO/AVC
    Duration : 1h 38mn
    Bit rate : 5 885 Kbps
    Width : 1 280 pixels
    Height : 544 pixels
    Display aspect ratio : 2.35:1
    Frame rate mode : Constant
    Frame rate : 24.000 fps
    Color space : YUV
    Chroma subsampling : 4:2:0
    Bit depth : 8 bits
    Scan type : Progressive
    Bits/(Pixel*Frame) : 0.352
    Stream size : 3.92 GiB (57%)
    Writing library : x264 core 148 r2692kMod 64f4e24
    Encoding settings : cabac=1 / ref=12 / deblock=1:-3:-3 / analyse=0x3:0x133 / me=umh / subme=11 / psy=1 / fade_compensate=0.00 / psy_rd=1.00:0.00 / mixed_ref=1 / me_range=32 / chroma_me=1 / trellis=2 / 8x8dct=1 / cqm=0 / deadzone=21,11 / fast_pskip=0 / chroma_qp_offset=-2 / threads=6 / lookahead_threads=1 / sliced_threads=0 / nr=0 / decimate=1 / interlaced=0 / bluray_compat=0 / constrained_intra=0 / fgo=0 / bframes=8 / b_pyramid=2 / b_adapt=2 / b_bias=0 / direct=3 / weightb=1 / open_gop=0 / weightp=2 / keyint=240 / keyint_min=24 / scenecut=40 / intra_refresh=0 / rc_lookahead=60 / rc=2pass / mbtree=0 / bitrate=5885 / ratetol=1.0 / qcomp=0.60 / qpmin=0 / qpmax=69 / qpstep=4 / cplxblur=20.0 / qblur=0.5 / vbv_maxrate=50000 / vbv_bufsize=62500 / nal_hrd=none / filler=0 / ip_ratio=1.25 / pb_ratio=1.30 / aq=1:1.00 / zones=135690,142367,b=0.3
    Language : English
    Default : Yes
    Forced : No
    Audio #1
    ID : 2
    Format : AC-3
    Format/Info : Audio Coding 3
    Mode extension : CM (complete main)
    Format settings, Endianness : Big
    Codec ID : A_AC3
    Duration : 1h 38mn
    Bit rate mode : Constant
    Bit rate : 448 Kbps
    Channel(s) : 6 channels
    Channel positions : Front: L C R, Side: L R, LFE
    Sampling rate : 48.0 KHz
    Frame rate : 31.250 fps (1536 spf)
    Compression mode : Lossy
    Stream size : 317 MiB (4%)
    Title : DVO - R5
    Language : Russian
    Default : Yes
    Forced : No
    Audio #2
    ID : 3
    Format : AC-3
    Format/Info : Audio Coding 3
    Mode extension : CM (complete main)
    Format settings, Endianness : Big
    Codec ID : A_AC3
    Duration : 1h 38mn
    Bit rate mode : Constant
    Bit rate : 448 Kbps
    Channel(s) : 6 channels
    Channel positions : Front: L C R, Side: L R, LFE
    Sampling rate : 48.0 KHz
    Frame rate : 31.250 fps (1536 spf)
    Compression mode : Lossy
    Stream size : 317 MiB (4%)
    Title : MVO - ТВ3
    Language : Russian
    Default : No
    Forced : No
    Audio #3
    ID : 4
    Format : DTS
    Format/Info : Digital Theater Systems
    Mode : 16
    Format settings, Endianness : Big
    Codec ID : A_DTS
    Duration : 1h 38mn
    Bit rate mode : Constant
    Bit rate : 1 509 Kbps
    Channel(s) : 6 channels
    Channel positions : Front: L C R, Side: L R, LFE
    Sampling rate : 48.0 KHz
    Frame rate : 93.750 fps (512 spf)
    Bit depth : 16 bits
    Compression mode : Lossy
    Stream size : 1.04 GiB (15%)
    Title : AVO - Nemahov
    Language : Russian
    Default : No
    Forced : No
    Audio #4
    ID : 5
    Format : AC-3
    Format/Info : Audio Coding 3
    Mode extension : CM (complete main)
    Format settings, Endianness : Big
    Codec ID : A_AC3
    Duration : 1h 38mn
    Bit rate mode : Constant
    Bit rate : 192 Kbps
    Channel(s) : 2 channels
    Channel positions : Front: L R
    Sampling rate : 48.0 KHz
    Frame rate : 31.250 fps (1536 spf)
    Compression mode : Lossy
    Stream size : 136 MiB (2%)
    Title : MVO - НЛО.TV
    Language : Ukrainian
    Default : No
    Forced : No
    Audio #5
    ID : 6
    Format : DTS
    Format/Info : Digital Theater Systems
    Mode : 16
    Format settings, Endianness : Big
    Codec ID : A_DTS
    Duration : 1h 38mn
    Bit rate mode : Constant
    Bit rate : 1 509 Kbps
    Channel(s) : 6 channels
    Channel positions : Front: L C R, Side: L R, LFE
    Sampling rate : 48.0 KHz
    Frame rate : 93.750 fps (512 spf)
    Bit depth : 16 bits
    Compression mode : Lossy
    Stream size : 1.04 GiB (15%)
    Language : English
    Default : No
    Forced : No
    Text #1
    ID : 7
    Format : UTF-8
    Codec ID : S_TEXT/UTF8
    Codec ID/Info : UTF-8 Plain Text
    Title : mr_greenwood
    Language : Russian
    Default : No
    Forced : No
    Text #2
    ID : 8
    Format : UTF-8
    Codec ID : S_TEXT/UTF8
    Codec ID/Info : UTF-8 Plain Text
    Title : notabenoid
    Language : Russian
    Default : No
    Forced : No
    Text #3
    ID : 9
    Format : UTF-8
    Codec ID : S_TEXT/UTF8
    Codec ID/Info : UTF-8 Plain Text
    Language : English
    Default : No
    Forced : No
    Menu
    00:00:00.000 : en:Chapter 1
    00:08:41.457 : en:Chapter 2
    00:19:36.040 : en:Chapter 3
    00:27:10.500 : en:Chapter 4
    00:33:28.208 : en:Chapter 5
    00:38:16.791 : en:Chapter 6
    00:43:46.375 : en:Chapter 7
    00:50:34.458 : en:Chapter 8
    00:58:57.666 : en:Chapter 9
    01:01:51.083 : en:Chapter 10
    01:09:19.375 : en:Chapter 11
    01:19:43.666 : en:Chapter 12
    01:26:37.791 : en:Chapter 13
    01:29:16.707 : en:Chapter 14
    01:31:11.582 : en:Chapter 15
    01:34:19.375 : en:Chapter 16
    Скачать .torrent

    Скачать торрент-файл бесплатно и на максимальной скорости!

    Как скачивать? · Что такое торрент? · Рейтинг и ограничения

    !ВНИМАНИЕ!
    Сайт не распространяет и не хранит электронные версии произведений, а занимается лишь лишь предоставлением доступа к создаваемому пользователями каталогу ссылок на торрент-файлы, которые содержат только списки хеш-сумм, убедительная просьба с жалобами обращаться напрямую к пользователю. Файлы для обмена на трекере предоставлены пользователями сайта, и администрация не несёт ответственности за их содержание. Просьба не заливать файлы, защищенные авторскими правами, а также файлы нелегального содержания!


    _________________
    [Профиль] [ЛС]
    Показать сообщения:    
    Ответить на тему

    Текущее время: Сегодня, в 22:06

    Часовой пояс: GMT + 2



    Вы не можете начинать темы
    Вы не можете отвечать на сообщения
    Вы не можете редактировать свои сообщения
    Вы не можете удалять свои сообщения
    Вы не можете голосовать в опросах
    Вы не можете прикреплять файлы к сообщениям
    Вы не можете скачивать файлы