BitTorrentTracker PerecTracker.org
BitTorrentTracker PerecTracker.org
    
Регистрация  ·  Вход
 
 · 
Забыли пароль?

  • Сахара / Sahara (Брайан Тренчард-Смит / Brian Trenchard-Smith) [1995, Австралия, США, военный, драма, WEB-DL 1080p] MVO + DVO + 3x AVO + VO + Original Eng

    Ответить на тему
     
    Автор Сообщение

    Light

    Создавать темы 06-Май-2016 21:59

           

    [Цитировать]

    Сахара / Sahara
    Страна: Австралия, США
    Студия: TriStar Pictures, TriStar Television, Village Roadshow Pictures
    Жанр: военный, драма
    Год выпуска: 1995
    Продолжительность: 01:46:00
    Перевод 1: Профессиональный (многоголосый закадровый) Объединение "Русский дубляж" по заказу "СТС"
    Перевод 2: Профессиональный (двухголосый закадровый) HTB+
    Перевод 3: Авторский (одноголосый закадровый) А. Гаврилов
    Перевод 4: Авторский (одноголосый закадровый) В. Горчаков
    Перевод 5: Авторский (одноголосый закадровый) С. Визгунов
    Перевод 6: Одноголосый (закадровый) Е. Гаевский
    Оригинальная аудиодорожка: английский
    Cубтитры: нет--Режиссер: Брайан Тренчард-Смит / Brian Trenchard-Smith--В ролях: Джеймс Белуши, Элан Дэвид Ли, Саймон Уэстэуэй, Марк Ли, Майкл Мэсси, Роберт Уиздом, Анджело Д'Анджело, Пол Эмпсон, Уильям Апджон, Тодд МакДоналд, Джулиан Гарнер, Александер Петерсонс, Джером Элерс, Дэвид Слингсби, Клаус Дайсон, Марк Гербер...--Описание: После падения Тобрука в июне 1942 года сержант американской армии Джо Ганн (Джеймс Белуши) с экипажем ведёт свой танк M3 «Грант» по имени «Лулу Белл» в ливийской пустыне с целью уйти от наступающих войск Роммеля и добраться до союзных позиций. По пути он подбирает нескольких солдат союзников, и военврач Халлидей, капитан по званию, передаёт Ганну командирские полномочия. Двигаясь дальше, отряд подбирает итальянского военнопленного под конвоем солдата британского Судана. Ганн сбивает немецкий истребитель, и союзники берут в плен вражеского лётчика. Отряду удаётся найти воду в старом, полузасохшем колодце, расположенном в заброшенном поселении Бир Акрома, однако к этому же колодцу устремляется немецкий мотострелковый батальон Африканского корпуса из 550 содат, изнемогающих от жажды. Вскоре вода кончается. Но фляги наполнены, и можно уходить, оставив немцам пересохший колодец. Но Ганн и английский рядовой Бейтс решают принять бой, который может позволить перегруппироваться войскам союзников. Немцы, думая, что вода в колодце есть, отчаянно атакуют снова и снова...--Доп. информация: | IMDB | КиноПоиск | Сэмпл |--Тип релиза: WEB-DL 1080p
    Источник: Amazon
    Контейнер: MKV
    Видео: AVC, 1920x1080р, 23.976 fps, 10 000 kbps, 0.201 bit/pixel
    Аудио 1: AC3 Dolby Digital, 2/0 (L,R) ch, 48 kHz, 192 kbps |MVO. Русский дубляж по заказу "СТС"|
    Аудио 2: AC3 Dolby Digital, 2/0 (L,R) ch, 48 kHz, 224 kbps |DVO. НТВ+|
    Аудио 3: AC3 Dolby Digital, 2/0 (L,R) ch, 48 kHz, 192 kbps |AVO. Гаврилов А.|
    Аудио 4: AC3 Dolby Digital, 2/0 (L,R) ch, 48 kHz, 192 kbps |AVO. Горчаков В.|
    Аудио 5: AC3 Dolby Digital, 2/0 (L,R) ch, 48 kHz, 192 kbps |AVO. Визгунов С.|
    Аудио 6: AC3 Dolby Digital, 2/0 (L,R) ch, 48 kHz, 192 kbps |VO. Гаевский Е.|
    Аудио 7: AC3 Dolby Digital, 2/0 (L,R) ch, 48 kHz, 192 kbps |Original. English|

    MediaInfo

    General
    Unique ID : 192786867228237006015072243724278413826 (0x910966698AD04DA1806DEFBA4679BA02)
    Complete name : Сахара (1995) 1080p.mkv
    Format : Matroska
    Format version : Version 4 / Version 2
    File size : 8.42 GiB
    Duration : 1h 46mn
    Overall bit rate mode : Constant
    Overall bit rate : 11.4 Mbps
    Movie name : Sahara / Сахара (1995)
    Encoded date : UTC 2016-05-04 19:55:40
    Writing application : mkvmerge v8.1.0 ('Psychedelic Postcard') 64bit
    Writing library : libebml v1.3.1 + libmatroska v1.4.2
    Cover : Yes
    Attachments : cover.jpg
    Video
    ID : 1
    Format : AVC
    Format/Info : Advanced Video Codec
    Format profile : High@L4
    Format settings, CABAC : Yes
    Format settings, ReFrames : 4 frames
    Codec ID : V_MPEG4/ISO/AVC
    Duration : 1h 46mn
    Bit rate mode : Constant
    Bit rate : 10 000 Kbps
    Width : 1 920 pixels
    Height : 1 080 pixels
    Display aspect ratio : 16:9
    Frame rate mode : Constant
    Frame rate : 23.976 (24000/1001) fps
    Color space : YUV
    Chroma subsampling : 4:2:0
    Bit depth : 8 bits
    Scan type : Progressive
    Bits/(Pixel*Frame) : 0.201
    Stream size : 7.40 GiB (88%)
    Title : Sahara 1995
    Language : English
    Default : Yes
    Forced : No
    Color range : Limited
    Color primaries : BT.709
    Transfer characteristics : BT.709
    Matrix coefficients : BT.709
    Audio #1
    ID : 2
    Format : AC-3
    Format/Info : Audio Coding 3
    Mode extension : CM (complete main)
    Format settings, Endianness : Big
    Codec ID : A_AC3
    Duration : 1h 46mn
    Bit rate mode : Constant
    Bit rate : 192 Kbps
    Channel(s) : 2 channels
    Channel positions : Front: L R
    Sampling rate : 48.0 KHz
    Frame rate : 31.250 fps (1536 spf)
    Compression mode : Lossy
    Stream size : 146 MiB (2%)
    Title : MVO. Русский дубляж
    Language : Russian
    Default : Yes
    Forced : No
    Audio #2
    ID : 3
    Format : AC-3
    Format/Info : Audio Coding 3
    Mode extension : CM (complete main)
    Format settings, Endianness : Big
    Codec ID : A_AC3
    Duration : 1h 46mn
    Bit rate mode : Constant
    Bit rate : 224 Kbps
    Channel(s) : 2 channels
    Channel positions : Front: L R
    Sampling rate : 48.0 KHz
    Frame rate : 31.250 fps (1536 spf)
    Compression mode : Lossy
    Stream size : 170 MiB (2%)
    Title : DVO. НТВ+
    Language : Russian
    Default : No
    Forced : No
    Audio #3
    ID : 4
    Format : AC-3
    Format/Info : Audio Coding 3
    Mode extension : CM (complete main)
    Format settings, Endianness : Big
    Codec ID : A_AC3
    Duration : 1h 46mn
    Bit rate mode : Constant
    Bit rate : 192 Kbps
    Channel(s) : 2 channels
    Channel positions : Front: L R
    Sampling rate : 48.0 KHz
    Frame rate : 31.250 fps (1536 spf)
    Compression mode : Lossy
    Stream size : 146 MiB (2%)
    Title : AVO. Гаврилов А.
    Language : Russian
    Default : No
    Forced : No
    Audio #4
    ID : 5
    Format : AC-3
    Format/Info : Audio Coding 3
    Mode extension : CM (complete main)
    Format settings, Endianness : Big
    Codec ID : A_AC3
    Duration : 1h 46mn
    Bit rate mode : Constant
    Bit rate : 192 Kbps
    Channel(s) : 2 channels
    Channel positions : Front: L R
    Sampling rate : 48.0 KHz
    Frame rate : 31.250 fps (1536 spf)
    Compression mode : Lossy
    Stream size : 146 MiB (2%)
    Title : AVO. Горчаков В.
    Language : Russian
    Default : No
    Forced : No
    Audio #5
    ID : 6
    Format : AC-3
    Format/Info : Audio Coding 3
    Mode extension : CM (complete main)
    Format settings, Endianness : Big
    Codec ID : A_AC3
    Duration : 1h 46mn
    Bit rate mode : Constant
    Bit rate : 192 Kbps
    Channel(s) : 2 channels
    Channel positions : Front: L R
    Sampling rate : 48.0 KHz
    Frame rate : 31.250 fps (1536 spf)
    Compression mode : Lossy
    Stream size : 146 MiB (2%)
    Title : AVO. Визгунов С.
    Language : Russian
    Default : No
    Forced : No
    Audio #6
    ID : 7
    Format : AC-3
    Format/Info : Audio Coding 3
    Mode extension : CM (complete main)
    Format settings, Endianness : Big
    Codec ID : A_AC3
    Duration : 1h 46mn
    Bit rate mode : Constant
    Bit rate : 192 Kbps
    Channel(s) : 2 channels
    Channel positions : Front: L R
    Sampling rate : 48.0 KHz
    Frame rate : 31.250 fps (1536 spf)
    Compression mode : Lossy
    Stream size : 146 MiB (2%)
    Title : VO. Гаевский Е.
    Language : Russian
    Default : No
    Forced : No
    Audio #7
    ID : 8
    Format : AC-3
    Format/Info : Audio Coding 3
    Mode extension : CM (complete main)
    Format settings, Endianness : Big
    Codec ID : A_AC3
    Duration : 1h 46mn
    Bit rate mode : Constant
    Bit rate : 192 Kbps
    Channel(s) : 2 channels
    Channel positions : Front: L R
    Sampling rate : 48.0 KHz
    Frame rate : 31.250 fps (1536 spf)
    Compression mode : Lossy
    Stream size : 146 MiB (2%)
    Title : Original
    Language : English
    Default : No
    Forced : No
    Скриншоты

    Запасные скриншоты

    Скачать .torrent

    Скачать торрент-файл бесплатно и на максимальной скорости!

    Как скачивать? · Что такое торрент? · Рейтинг и ограничения

    !ВНИМАНИЕ!
    Сайт не распространяет и не хранит электронные версии произведений, а занимается лишь лишь предоставлением доступа к создаваемому пользователями каталогу ссылок на торрент-файлы, которые содержат только списки хеш-сумм, убедительная просьба с жалобами обращаться напрямую к пользователю. Файлы для обмена на трекере предоставлены пользователями сайта, и администрация не несёт ответственности за их содержание. Просьба не заливать файлы, защищенные авторскими правами, а также файлы нелегального содержания!


    _________________
    [Профиль] [ЛС]
    Показать сообщения:    
    Ответить на тему

    Текущее время: Сегодня, в 15:45

    Часовой пояс: GMT + 2



    Вы не можете начинать темы
    Вы не можете отвечать на сообщения
    Вы не можете редактировать свои сообщения
    Вы не можете удалять свои сообщения
    Вы не можете голосовать в опросах
    Вы не можете прикреплять файлы к сообщениям
    Вы не можете скачивать файлы