BitTorrentTracker PerecTracker.org
BitTorrentTracker PerecTracker.org
    
Регистрация  ·  Вход
 
 · 
Забыли пароль?

  • Агент Хамилтон: В интересах нации / Hamilton: I nationens intresse (Кэтрин Уиндфельд / Kathrine Windfeld) [2012, Швеция, боевик, триллер, драма, BDRip-AVC] MVO + Sub (eng)

    Ответить на тему
     
    Автор Сообщение

    Light

    Создавать темы 06-Май-2016 21:59

           

    [Цитировать]

    Агент Хамилтон: В интересах нации
    Hamilton: I nationens intresse

    Страна: Швеция
    Жанр: боевик, триллер, драма
    Год выпуска: 2012
    Продолжительность: 01:49:08
    Перевод: Профессиональный (многоголосый, закадровый) [Лицензия R5]
    Субтитры: английские
    Оригинальная аудиодорожка: нет
    Режиссер: Кэтрин Уиндфельд / Kathrine Windfeld
    В ролях: Микаэл Персбрандт, Пернилла Аугуст, Джейсон Флеминг, Леннарт Юльстрём, Рэй Фиарон, Петер Андерссон, Густаф Хаммарстен, Фанни Рисберг, Кевин МакНэлли, Саба Мубарак, Александр Носик, Дэн Экборг
    Описание:
    Специальный агент Карл Гамильтон с секретной миссией на границе между Узбекистаном и Афганистаном. Он внедряется в тайную организацию русской мафии, которая украла сложные GPS-управляемые артиллерийские снаряды, экспортируемые шведской оборонной компанией Nordfors. Неожиданно они подвергаются нападению неизвестной группы вооруженных наемников, которые убивают всех, кроме Гамильтона, и скрываются вместе со снарядами.
    Между тем, похищен шведский оружейный техник и заключен в тюрьму Сомали. Премьер-министр соглашается провести спасательную операцию при участии частной американской охранной компании Sectragon, с условием, что шведский наблюдатель будет присутствовать, а именно Карл Гамильтон. Гамильтон участвует в спасательной операции, но он чувствовал, что что-то не так. Кто-то говорит неправду, и он готов узнать, что происходит на самом деле.
    Автор рипа: Stalker oK
    Сэмпл
    Качество видео: BDRip-AVC [rutracker / Blu-ray Remux / 1080p]
    Формат видео: MKV
    Видео кодек: AVC
    Аудио кодек: AC3
    Видео: 1463 Кбит/сек, 984x410 (2.40:1), 24 кадр/сек, AVC
    Аудио: русский, 448 Кбит/сек, 48 КГц, 16 бит, 5.1, AC3
    Навигация по главам: есть

    MediaInfo

    Общее
    Уникальный идентификатор : 247339968044146163671406804199014909647 (0xBA13F1F16B131D3688FA5691B067C6CF)
    Полное имя : M:\Rips\Hamilton - I nationens intresse\Hamilton.I.nationens.intresse.2012.BDRip-AVC.MVO.1.45Gb.stalkerok.new-team.mkv
    Формат : Matroska
    Версия формата : Version 4 / Version 2
    Размер файла : 1,46 Гбайт
    Продолжительность : 1 ч. 49 м.
    Общий поток : 1909 Кбит/сек
    Название фильма : Hamilton: I nationens intresse (2012) (New-Team) (Rip by Stalker oK)
    Дата кодирования : UTC 2016-05-06 14:23:07
    Программа кодирования : mkvmerge v8.6.1 ('Flying') 64bit
    Библиотека кодирования : libebml v1.3.3 + libmatroska v1.4.4
    Видео
    Идентификатор : 1
    Формат : AVC
    Формат/Информация : Advanced Video Codec
    Профиль формата : High@L4.1
    Параметр CABAC формата : Да
    Параметр ReFrames формата : 14 кадров
    Идентификатор кодека : V_MPEG4/ISO/AVC
    Продолжительность : 1 ч. 49 м.
    Битрейт : 1463 Кбит/сек
    Ширина : 984 пикселя
    Высота : 410 пикселей
    Соотношение сторон : 2,40:1
    Режим частоты кадров : Постоянный
    Частота кадров : 24,000 кадра/сек
    Цветовое пространство : YUV
    Субдискретизация насыщенности : 4:2:0
    Битовая глубина : 8 бит
    Тип развёртки : Прогрессивная
    Бит/(Пиксели*Кадры) : 0.151
    Размер потока : 1,11 Гбайт (76%)
    Заголовок : Hamilton: I nationens intresse (2012) (New-Team) (Rip by Stalker oK)
    Библиотека кодирования : x264 core 148 r2665kMod a01e339
    Настройки программы : cabac=1 / ref=14 / deblock=1:-3:-2 / analyse=0x3:0x133 / me=umh / subme=11 / psy=1 / fade_compensate=0.00 / psy_rd=1.00:0.05 / mixed_ref=1 / me_range=48 / chroma_me=1 / trellis=2 / 8x8dct=1 / cqm=0 / deadzone=21,11 / fast_pskip=0 / chroma_qp_offset=-3 / threads=12 / lookahead_threads=3 / sliced_threads=0 / nr=0 / decimate=0 / interlaced=0 / bluray_compat=0 / constrained_intra=0 / fgo=0 / bframes=15 / b_pyramid=2 / b_adapt=2 / b_bias=0 / direct=3 / weightb=1 / open_gop=0 / weightp=2 / keyint=240 / keyint_min=23 / scenecut=40 / intra_refresh=0 / rc_lookahead=60 / rc=2pass / mbtree=0 / bitrate=1463 / ratetol=1.0 / qcomp=0.70 / qpmin=0 / qpmax=69 / qpstep=4 / cplxblur=20.0 / qblur=0.5 / vbv_maxrate=50000 / vbv_bufsize=62500 / nal_hrd=none / filler=0 / ip_ratio=1.40 / pb_ratio=1.30 / aq=3:0.87
    Default : Да
    Forced : Нет
    Аудио
    Идентификатор : 2
    Формат : AC-3
    Формат/Информация : Audio Coding 3
    Расширение режима : CM (complete main)
    Параметр Endianness формата : Big
    Идентификатор кодека : A_AC3
    Продолжительность : 1 ч. 49 м.
    Вид битрейта : Постоянный
    Битрейт : 448 Кбит/сек
    Каналы : 6 каналов
    Расположение каналов : Front: L C R, Side: L R, LFE
    Частота : 48,0 КГц
    Частота кадров : 31,250 кадров/сек (1536 spf)
    Метод сжатия : С потерями
    Размер потока : 350 Мбайт (23%)
    Заголовок : MVO, R5
    Язык : Russian
    Default : Да
    Forced : Нет
    Текст
    Идентификатор : 3
    Формат : UTF-8
    Идентификатор кодека : S_TEXT/UTF8
    Идентификатор кодека/Информация : UTF-8 Plain Text
    Продолжительность : 1 ч. 42 м.
    Битрейт : 36 бит/сек
    Count of elements : 898
    Размер потока : 27,6 Кбайт (0%)
    Язык : English
    Default : Нет
    Forced : Нет
    Меню
    00:00:00.000 : en:00:00:00.000
    00:05:48.708 : en:00:05:48.708
    00:11:19.375 : en:00:11:19.375
    00:17:16.708 : en:00:17:16.708
    00:23:35.750 : en:00:23:35.750
    00:29:21.542 : en:00:29:21.542
    00:36:11.625 : en:00:36:11.625
    00:42:42.208 : en:00:42:42.208
    00:50:48.083 : en:00:50:48.083
    00:57:49.000 : en:00:57:49.000
    01:04:57.833 : en:01:04:57.833
    01:11:52.250 : en:01:11:52.250
    01:16:18.625 : en:01:16:18.625
    01:22:31.875 : en:01:22:31.875
    01:28:24.208 : en:01:28:24.208
    01:33:42.583 : en:01:33:42.583
    01:39:21.167 : en:01:39:21.167
    01:44:03.458 : en:01:44:03.458

    Скриншоты

    Скачать .torrent

    Скачать торрент-файл бесплатно и на максимальной скорости!

    Как скачивать? · Что такое торрент? · Рейтинг и ограничения

    !ВНИМАНИЕ!
    Сайт не распространяет и не хранит электронные версии произведений, а занимается лишь лишь предоставлением доступа к создаваемому пользователями каталогу ссылок на торрент-файлы, которые содержат только списки хеш-сумм, убедительная просьба с жалобами обращаться напрямую к пользователю. Файлы для обмена на трекере предоставлены пользователями сайта, и администрация не несёт ответственности за их содержание. Просьба не заливать файлы, защищенные авторскими правами, а также файлы нелегального содержания!


    _________________
    [Профиль] [ЛС]
    Показать сообщения:    
    Ответить на тему

    Текущее время: Сегодня, в 11:08

    Часовой пояс: GMT + 2



    Вы не можете начинать темы
    Вы не можете отвечать на сообщения
    Вы не можете редактировать свои сообщения
    Вы не можете удалять свои сообщения
    Вы не можете голосовать в опросах
    Вы не можете прикреплять файлы к сообщениям
    Вы не можете скачивать файлы