BitTorrentTracker PerecTracker.org
BitTorrentTracker PerecTracker.org
    
Регистрация  ·  Вход
 
 · 
Забыли пароль?

  • Могучий Куинн / The Mighty Quinn (Карл Шенкель / Carl Schenkel) [1989, США, боевик, триллер, драма, криминал, детектив, BDRip 720p] DVO (HTB+) + Original Eng + Sub Eng

    Ответить на тему
     
    Автор Сообщение

    Light

    Создавать темы 06-Май-2016 17:54

           

    [Цитировать]

    Могучий Куинн / The Mighty Quinn«THE CHIEF OF POLICE AND THE CHIEF SUSPECT. They know each other too well to let a little thing like murder get in their way»-Страна: США
    Студия: A&M Films, Metro-Goldwyn-Mayer (MGM), Star Partners II Ltd
    Жанр: боевик, триллер, драма, криминал, детектив
    Год выпуска: 1989
    Продолжительность: 01:38:42
    Перевод: Профессиональный (двухголосый закадровый) | HTB+
    Оригинальная аудиодорожка: английский
    Cубтитры: английские
    Режиссер: Карл Шенкель / Carl Schenkel
    В ролях: Дензел Вашингтон, Джеймс Фокс, Мими Роджерс, М. Эммет Уолш, Шерил Ли Ральф, Арт Эванс, Эстер Ролли, Норман Битон, Алекс Колон, Роберт Таунзенд
    Описание: Один из Карибских островов. Чернокожий полицейский ведет расследование убийства, которое причастные к нему люди из высшего общества хотят скрыть. Будучи хорошим полицейским и стремясь распутать дело, наш герой игнорирует предупреждения местных белых шишек и даже губернатора…-
    Тип релиза: BDRip 720p (BDRemux thx flaSI-I)
    Контейнер: MKV
    Видео: 1280x694 at 23.976 fps, x264@L4.1, crf, ~10205 kbps avg
    Аудио 1: Russian: 48 kHz, AC3, 2/0 (L,R) ch, ~192.00 kbps avg |Двухголосый закадровый, HTB+|
    Аудио 2: English: 48 kHz, FLAC, 2/0 (L,R) ch, ~501.00 kbps avg
    Cубтитры: English

    MediaInfo + x264

    x264 [info]: frame I:932 Avg QP:16.63 size:133244
    x264 [info]: frame P:25956 Avg QP:17.89 size: 80190
    x264 [info]: frame B:115102 Avg QP:19.93 size: 46475
    x264 [info]: consecutive B-frames: 1.0% 0.7% 3.4% 9.8% 13.7% 56.3% 6.8% 3.0% 2.8% 2.6%
    General
    Unique ID : 233941553010370401569101049187619443078 (0xAFFF81146CD4C8C38AF4D21E2CCA1186)
    Complete name : D:\The.Mighty.Quinn.1989.720p.BluRay.Rus.Eng.mkv
    Format : Matroska
    Format version : Version 4 / Version 2
    File size : 7.52 GiB
    Duration : 1h 38mn
    Overall bit rate mode : Variable
    Overall bit rate : 10.9 Mbps
    Movie name : Могучий Куинн / The Mighty Quinn (1989)
    Encoded date : UTC 2016-05-05 03:32:54
    Writing application : mkvmerge v9.1.0 ('Little Earthquakes') 64bit
    Writing library : libebml v1.3.3 + libmatroska v1.4.4
    Cover : Yes
    Attachments : cover.jpg / xlog.txt
    Video
    ID : 1
    Format : AVC
    Format/Info : Advanced Video Codec
    Format profile : High@L4.1
    Format settings, CABAC : Yes
    Format settings, ReFrames : 9 frames
    Codec ID : V_MPEG4/ISO/AVC
    Duration : 1h 38mn
    Bit rate : 10.2 Mbps
    Width : 1 280 pixels
    Height : 694 pixels
    Display aspect ratio : 1.85:1
    Frame rate mode : Constant
    Frame rate : 23.976 (24000/1001) fps
    Color space : YUV
    Chroma subsampling : 4:2:0
    Bit depth : 8 bits
    Scan type : Progressive
    Bits/(Pixel*Frame) : 0.479
    Stream size : 7.04 GiB (94%)
    Title : Могучий Куинн / The Mighty Quinn (1989) BDRip 720p by Kasparas
    Writing library : x264 core 148 r2692kMod 64f4e24
    Encoding settings : cabac=1 / ref=9 / deblock=1:-3:-3 / analyse=0x3:0x133 / me=umh / subme=10 / psy=1 / fade_compensate=0.00 / psy_rd=1.00:0.00 / mixed_ref=1 / me_range=32 / chroma_me=1 / trellis=2 / 8x8dct=1 / cqm=0 / deadzone=21,11 / fast_pskip=0 / chroma_qp_offset=-2 / threads=6 / lookahead_threads=1 / sliced_threads=0 / nr=0 / decimate=0 / interlaced=0 / bluray_compat=0 / constrained_intra=0 / fgo=0 / bframes=9 / b_pyramid=2 / b_adapt=2 / b_bias=0 / direct=3 / weightb=1 / open_gop=0 / weightp=2 / keyint=250 / keyint_min=23 / scenecut=40 / intra_refresh=0 / rc_lookahead=60 / rc=crf / mbtree=0 / crf=17.0000 / qcomp=0.60 / qpmin=0 / qpmax=69 / qpstep=4 / vbv_maxrate=62500 / vbv_bufsize=78125 / crf_max=0.0 / nal_hrd=none / filler=0 / ip_ratio=1.40 / pb_ratio=1.30 / aq=3:0.80
    Language : English
    Default : Yes
    Forced : No
    Audio #1
    ID : 2
    Format : AC-3
    Format/Info : Audio Coding 3
    Mode extension : CM (complete main)
    Format settings, Endianness : Big
    Codec ID : A_AC3
    Duration : 1h 38mn
    Bit rate mode : Constant
    Bit rate : 192 Kbps
    Channel(s) : 2 channels
    Channel positions : Front: L R
    Sampling rate : 48.0 KHz
    Frame rate : 31.250 fps (1536 spf)
    Compression mode : Lossy
    Stream size : 136 MiB (2%)
    Title : DVO, HTB+
    Language : Russian
    Default : Yes
    Forced : No
    Audio #2
    ID : 3
    Format : FLAC
    Format/Info : Free Lossless Audio Codec
    Codec ID : A_FLAC
    Duration : 1h 38mn
    Bit rate mode : Variable
    Bit rate : 501 Kbps
    Channel(s) : 2 channels
    Channel positions : Front: L R
    Sampling rate : 48.0 KHz
    Frame rate : 11.719 fps (4096 spf)
    Bit depth : 16 bits
    Stream size : 354 MiB (5%)
    Writing library : libFLAC 1.3.1 (UTC 2014-11-25)
    Language : English
    Default : No
    Forced : No
    Text
    ID : 4
    Format : UTF-8
    Codec ID : S_TEXT/UTF8
    Codec ID/Info : UTF-8 Plain Text
    Duration : 1h 38mn
    Bit rate : 53 bps
    Count of elements : 1011
    Stream size : 38.3 KiB (0%)
    Title : SDH
    Language : English
    Default : No
    Forced : No
    Menu
    00:00:00.000 : en:Chapter 01
    00:00:10.927 : en:Chapter 02
    00:11:36.028 : en:Chapter 03
    00:24:01.898 : en:Chapter 04
    00:35:00.264 : en:Chapter 05
    00:47:32.933 : en:Chapter 06
    00:58:18.536 : en:Chapter 07
    01:11:57.062 : en:Chapter 08
    01:24:43.953 : en:Chapter 09

    Скриншоты

    Source vs Encode





    HDTVRip vs BDRip

    HDTVRip 720p vs BDRip 720p


    Скачать .torrent

    Скачать торрент-файл бесплатно и на максимальной скорости!

    Как скачивать? · Что такое торрент? · Рейтинг и ограничения

    !ВНИМАНИЕ!
    Сайт не распространяет и не хранит электронные версии произведений, а занимается лишь лишь предоставлением доступа к создаваемому пользователями каталогу ссылок на торрент-файлы, которые содержат только списки хеш-сумм, убедительная просьба с жалобами обращаться напрямую к пользователю. Файлы для обмена на трекере предоставлены пользователями сайта, и администрация не несёт ответственности за их содержание. Просьба не заливать файлы, защищенные авторскими правами, а также файлы нелегального содержания!


    _________________
    [Профиль] [ЛС]
    Показать сообщения:    
    Ответить на тему

    Текущее время: Сегодня, в 22:36

    Часовой пояс: GMT + 2



    Вы не можете начинать темы
    Вы не можете отвечать на сообщения
    Вы не можете редактировать свои сообщения
    Вы не можете удалять свои сообщения
    Вы не можете голосовать в опросах
    Вы не можете прикреплять файлы к сообщениям
    Вы не можете скачивать файлы