BitTorrentTracker PerecTracker.org
BitTorrentTracker PerecTracker.org
    
Регистрация  ·  Вход
 
 · 
Забыли пароль?

  • Зажигание / Combustion (Даниэль Кальпарсоро / Daniel Calparsoro) [2013, Испания, мелодрама, приключения, боевик, BDRip 720p] Dub + Sub Rus, Eng + Original Spa

    Ответить на тему
     
    Автор Сообщение

    Light

    Создавать темы 06-Май-2016 17:54

           

    [Цитировать]

    Зажигание / Combustion
    Страна: Испания
    Студия: Antena 3 Films, Antena 3 Television, Canal+ Espana
    Жанр: мелодрама, приключения, боевик
    Год выпуска: 2013
    Продолжительность: 01:43:37
    Перевод: Профессиональный (дублированный) Blu-Ray RUS
    Cубтитры: русские, английские
    Оригинальная аудиодорожка: испанский
    Режиссер: Даниэль Кальпарсоро / Daniel Calparsoro
    В ролях: Алекс Гонсалес, Адриана Угарте, Альберто Амман, Мария Кастро, Луис Саера, Марта Ниэто, Кристиан Мулас, Хуан Пабло Шук, Мария Каласса
    Описание: Навас и Ари — идеальная пара и профессиональные мошенники. Она — роковая красотка, соблазняющая богатых мужчин, а он — жестокий налетчик, который их грабит. Все меняется, когда Навас и Ари выбирают себе новую жертву — богатенького красавчика Микеля, в которого Ари влюбляется без памяти…- -Сэмпл: http://sendfile.su/1231034
    Тип релиза: BDRip 720p [EbP]
    Контейнер: MKV
    Видео: h.264, 1280x544, 24.000 fps, 5623 kbps
    Аудио #1: Russian: DTS 5.1, 48 kHz/16-bit, 1536 kbps avg |Дубляж, Blu-Ray RUS|
    Аудио #2: Spanish: DTS 5.1, 48 kHz/24-bit, 1536 kbps avg |Оригинал|
    Формат субтитров: softsub (SRT)

    MediaInfo

    Complete name : D:\Принятые\Combustion.2013.720p.BluRay.Rus.Spa.HDCLUB.mkv
    Format : Matroska
    Format version : Version 2
    File size : 6.38 GiB
    Duration : 1h 43mn
    Overall bit rate : 8 817 Kbps
    Movie name : HDCLUB present "Combustión 2013"
    Encoded date : UTC 2013-09-04 19:29:12
    Writing application : mkvmerge v5.8.0 ('No Sleep / Pillow') built on Sep 2 2012 15:37:04
    Writing library : libebml v1.2.3 + libmatroska v1.3.0
    Video
    ID : 1
    Format : AVC
    Format/Info : Advanced Video Codec
    Format profile : High@L4.1
    Format settings, CABAC : Yes
    Format settings, ReFrames : 11 frames
    Codec ID : V_MPEG4/ISO/AVC
    Duration : 1h 43mn
    Bit rate : 5 623 Kbps
    Width : 1 280 pixels
    Height : 544 pixels
    Display aspect ratio : 2.35:1
    Frame rate mode : Constant
    Frame rate : 24.000 fps
    Color space : YUV
    Chroma subsampling : 4:2:0
    Bit depth : 8 bits
    Scan type : Progressive
    Bits/(Pixel*Frame) : 0.336
    Stream size : 4.07 GiB (64%)
    Title : Combustión 2013
    Language : Spanish
    Default : Yes
    Forced : No
    Audio #1
    ID : 2
    Format : DTS
    Format/Info : Digital Theater Systems
    Mode : 16
    Format settings, Endianness : Big
    Codec ID : A_DTS
    Duration : 1h 43mn
    Bit rate mode : Constant
    Bit rate : 1 509 Kbps
    Channel(s) : 6 channels
    Channel positions : Front: L C R, Side: L R, LFE
    Sampling rate : 48.0 KHz
    Frame rate : 93.750 fps (512 spf)
    Bit depth : 16 bits
    Compression mode : Lossy
    Stream size : 1.09 GiB (17%)
    Title : DTS 5.1 @ 1509 kbps - Dubbed [BD RUS]
    Language : Russian
    Default : Yes
    Forced : No
    Audio #2
    ID : 3
    Format : DTS
    Format/Info : Digital Theater Systems
    Mode : 16
    Format settings, Endianness : Big
    Codec ID : A_DTS
    Duration : 1h 43mn
    Bit rate mode : Constant
    Bit rate : 1 509 Kbps
    Channel(s) : 6 channels
    Channel positions : Front: L C R, Side: L R, LFE
    Sampling rate : 48.0 KHz
    Frame rate : 93.750 fps (512 spf)
    Bit depth : 24 bits
    Compression mode : Lossy
    Stream size : 1.09 GiB (17%)
    Title : DTS 5.1 @ 1509 kbps
    Language : Spanish
    Default : No
    Forced : No
    Text #1
    ID : 4
    Format : UTF-8
    Codec ID : S_TEXT/UTF8
    Codec ID/Info : UTF-8 Plain Text
    Language : Russian
    Default : No
    Forced : No
    Text #2
    ID : 5
    Format : UTF-8
    Codec ID : S_TEXT/UTF8
    Codec ID/Info : UTF-8 Plain Text
    Language : English
    Default : No
    Forced : No
    Menu
    00:00:00.000 : en:00:00:00.000
    00:08:06.292 : en:00:08:06.292
    00:17:20.083 : en:00:17:20.083
    00:25:45.208 : en:00:25:45.208
    00:34:20.708 : en:00:34:20.708
    00:43:27.708 : en:00:43:27.708
    00:51:47.500 : en:00:51:47.500
    01:00:54.750 : en:01:00:54.750
    01:09:25.500 : en:01:09:25.500
    01:16:57.750 : en:01:16:57.750
    01:27:00.292 : en:01:27:00.292
    01:35:02.208 : en:01:35:02.208

    Скриншоты

    Скачать .torrent

    Скачать торрент-файл бесплатно и на максимальной скорости!

    Как скачивать? · Что такое торрент? · Рейтинг и ограничения

    !ВНИМАНИЕ!
    Сайт не распространяет и не хранит электронные версии произведений, а занимается лишь лишь предоставлением доступа к создаваемому пользователями каталогу ссылок на торрент-файлы, которые содержат только списки хеш-сумм, убедительная просьба с жалобами обращаться напрямую к пользователю. Файлы для обмена на трекере предоставлены пользователями сайта, и администрация не несёт ответственности за их содержание. Просьба не заливать файлы, защищенные авторскими правами, а также файлы нелегального содержания!


    _________________
    [Профиль] [ЛС]
    Показать сообщения:    
    Ответить на тему

    Текущее время: Сегодня, в 13:46

    Часовой пояс: GMT + 2



    Вы не можете начинать темы
    Вы не можете отвечать на сообщения
    Вы не можете редактировать свои сообщения
    Вы не можете удалять свои сообщения
    Вы не можете голосовать в опросах
    Вы не можете прикреплять файлы к сообщениям
    Вы не можете скачивать файлы