BitTorrentTracker PerecTracker.org
BitTorrentTracker PerecTracker.org
    
Регистрация  ·  Вход
 
 · 
Забыли пароль?

  • Крид: Наследие Рокки / Creed (Райан Куглер / Ryan Coogler) [2015, США, Драма, спорт, BDRip, HD (720p)] DUB + Original + sub (rus, eng)

    Ответить на тему
     
    Автор Сообщение

    rechyn

    Создавать темы 06-Май-2016 13:49

           

    [Цитировать]

    Крид: Наследие Рокки / Creed
    «Your legacy is more than a name»
    7.112 / 10 7.70 / 10
    -Год выпуска: 2015
    Страна: США
    Жанр: Драма, спорт
    Продолжительность: 02:13:10
    Перевод: Дублированный (Blu-ray CEE)
    Оригинальная аудиодорожка: Есть
    Cубтитры: Русские форсированные, Русские, Английские
    Режиссёр: Райан Куглер
    Сценарий: Райан Куглер, Аарон Ковингтон, Сильвестр Сталлоне
    Продюсер: Роберт Чартофф, Уильям Чартофф, Сильвестр Сталлоне
    Оператор: Мариза Альберти
    Композитор: Людвиг Горанссон
    Художник: Ханна Бичлер, Дэнни Браун, Джесси Розенталь
    Монтаж: Клаудия Кастелло, Майкл П. Шовер
    В ролях: Майкл Б. Джордан, Сильвестр Сталлоне, Тесса Томпсон, Филисия Рашад, Андре Уорд, Тони Белью, Ричи Костер, Джейкоб ’Стич’ Дюран, Грэм МакТавиш, Malik Bazille
    Бюджет: $35 000 000
    Сборы в США: $109 767 581
    Сборы в мире: + $63 800 000 = $173 567 581
    Сборы в России: $776 129
    Мировая премьера: 25 ноября 2015
    Премьера (РФ): 14 января 2016, «Каро-Премьер»
    Описание: В центре внимания сын Аполло Крида — первого серьезного соперника Рокки Бальбоа на ринге, впоследствии ставшего лучшим другом героя. Талант отца в какой-то момент проявляется и в Криде-младшем, и юноша отправляется на поиски наставника, коим для него в итоге становится постаревший Рокки, тоже не слишком жаждущий возвращаться к старым делам. Даже в качестве тренера.-Качество исходника: BDRemux (HDClub)
    Качество: BDRip
    Тип: HD (720p)
    Контейнер: M4V
    Видео: H.264, 1280x536, 2.40:1, 3 500 Kbps, 23.976 (24000/1001) fps
    Аудио 1: Русский/Дублированный (Blu-ray CEE), AAC / 2.0 / 157 Kbps / 48.0 KHz
    Аудио 2: Английский/Оригинальная дорожка , AAC / 2.0 / 157 Kbps / 48.0 KHz
    Аудио 3: Русский/Дублированный (Blu-ray CEE), AC-3 / 5.1 / 640 Kbps / 48.0 KHz
    Аудио 4: Английский/Оригинальная дорожка , AC-3 / 5.1 / 640 Kbps / 48.0 KHz
    Субтитры 1: Русские форсированные
    Субтитры 2: Русские полные
    Субтитры 3: Английские полные
    -

    iTunes Meta Tags

    Sort Name: Крид: Наследие Рокки
    XID: Apple:vendor_id:2015-782932
    contentID: 782932
    Copyright: © 2015 Metro-Goldwyn-Mayer Pictures Inc. and Warner Bros. Entertainment Inc. All rights reserved.
    Screenwriters: Райан Куглер, Аарон Ковингтон, Сильвестр Сталлоне
    Producers: Роберт Чартофф, Уильям Чартофф, Сильвестр Сталлоне
    Director: Райан Куглер
    Cast: Майкл Б. Джордан, Сильвестр Сталлоне, Тесса Томпсон, Филисия Рашад, Андре Уорд, Тони Белью, Ричи Костер, Джейкоб ’Стич’ Дюран, Грэм МакТавиш, Malik Bazille
    Studio: MGM
    Long Description: В центре внимания сын Аполло Крида - первого серьезного соперника Рокки Бальбоа на ринге, впоследствии ставшего лучшим другом героя. Талант отца в какой-то момент проявляется и в Криде-младшем, и юноша отправляется на поиски наставника, коим для него в итоге становится постаревший Рокки, тоже не слишком жаждущий возвращаться к старым делам. Даже в качестве тренера.
    Description: В центре внимания сын Аполло Крида - первого серьезного соперника Рокки Бальбоа на ринге, впоследствии ставшего лучшим другом героя. Талант отца в какой-то момент проявляется и в Криде-младшем, и юноша отправляется на поиски наставника, коим для него в итоге становится постаревший Рокки, тоже не слишком жаждущий возвращаться к старым делам. Даже в качестве тренера.
    Release Date: 2015-11-25T08:00:00Z
    Artist: Райан Куглер
    Name: Крид: Наследие Рокки

    MediaInfo

    General
    Complete name : /Users/imac/HandBrake/Creed (720p HD).m4v
    Format : MPEG-4
    Codec ID : M4V  (M4V /M4A /mp42/isom)
    File size : 4.74 GiB
    Duration : 2h 13mn
    Overall bit rate mode : Variable
    Overall bit rate : 5 100 Kbps
    Movie name : Крид: Наследие Рокки
    Performer : Райан Куглер
    Director : Райан Куглер
    Actor : Майкл Б. Джордан / Сильвестр Сталлоне / Тесса Томпсон / Филисия Рашад / Андре Уорд / Тони Белью / Ричи Костер / Джейкоб ’Стич’ Дюран / Грэм МакТавиш / Malik Bazille
    Screenplay by : Райан Куглер / Аарон Ковингтон / Сильвестр Сталлоне
    Producer : Роберт Чартофф / Уильям Чартофф / Сильвестр Сталлоне
    Production studio : MGM
    ContentType : Short Film
    Description : В центре внимания сын Аполло Крида - первого серьезного соперника Рокки Бальбоа на ринге, впоследствии ставшего лучшим другом героя. Талант отца в какой-то момент проявляется и в Криде-младшем, и юноша отправляется на поиски наставника, коим для него в итоге становится постаревший Рокки, тоже не слишком жаждущий возвращаться к старым делам. Даже в качестве тренера.
    Recorded date : UTC 2015-11-25 08:00:00
    Encoded date : UTC 2016-05-06 09:27:59
    Tagged date : UTC 2016-05-06 09:35:50
    Copyright : © 2015 Metro-Goldwyn-Mayer Pictures Inc. and Warner Bros. Entertainment Inc. All rights reserved.
    Cover : Yes
    Rating : None
    Title/Sort : Крид: Наследие Рокки
    LongDescription : В центре внимания сын Аполло Крида - первого серьезного соперника Рокки Бальбоа на ринге, впоследствии ставшего лучшим другом героя. Талант отца в какой-то момент проявляется и в Криде-младшем, и юноша отправляется на поиски наставника, коим для него в итоге становится постаревший Рокки, тоже не слишком жаждущий возвращаться к старым делам. Даже в качестве тренера.
    HDVideo : Yes
    AppleStoreCatalogID : 782932
    Vendor : Apple:vendor_id:2015-782932
    Video #1
    ID : 1
    Format : AVC
    Format/Info : Advanced Video Codec
    Format profile : High@L3.1
    Format settings, CABAC : No
    Format settings, ReFrames : 3 frames
    Codec ID : avc1
    Codec ID/Info : Advanced Video Coding
    Duration : 2h 13mn
    Source duration : 2h 13mn
    Bit rate : 3 500 Kbps
    Width : 1 280 pixels
    Height : 536 pixels
    Display aspect ratio : 2.40:1
    Frame rate mode : Variable
    Frame rate : 23.976 (24000/1001) fps
    Minimum frame rate : 23.974 fps
    Maximum frame rate : 23.981 fps
    Color space : YUV
    Chroma subsampling : 4:2:0
    Bit depth : 8 bits
    Scan type : Progressive
    Bits/(Pixel*Frame) : 0.213
    Stream size : 3.25 GiB (69%)
    Source stream size : 3.25 GiB (69%)
    Title : Main Program
    Writing library : x264 core 142 r2479 dd79a61
    Encoding settings : cabac=0 / ref=3 / deblock=1:-3:-3 / analyse=0x3:0x113 / me=umh / subme=9 / psy=1 / psy_rd=1.00:0.15 / mixed_ref=1 / me_range=32 / chroma_me=1 / trellis=0 / 8x8dct=1 / cqm=0 / deadzone=21,11 / fast_pskip=0 / chroma_qp_offset=-2 / threads=36 / lookahead_threads=3 / sliced_threads=0 / nr=0 / decimate=0 / interlaced=0 / bluray_compat=0 / constrained_intra=0 / bframes=3 / b_pyramid=0 / b_adapt=2 / b_bias=0 / direct=1 / weightb=0 / open_gop=0 / weightp=0 / keyint=240 / keyint_min=24 / scenecut=40 / intra_refresh=0 / rc_lookahead=40 / rc=2pass / mbtree=1 / bitrate=3500 / ratetol=1.0 / qcomp=0.65 / qpmin=0 / qpmax=69 / qpstep=4 / cplxblur=20.0 / qblur=0.5 / vbv_maxrate=9500 / vbv_bufsize=9500 / nal_hrd=none / filler=0 / ip_ratio=1.40 / aq=1:1.10
    Language : English
    Encoded date : UTC 2016-05-06 09:27:59
    Tagged date : UTC 2016-05-06 09:28:08
    Color range : Limited
    Color primaries : BT.709
    Transfer characteristics : BT.709
    Matrix coefficients : BT.709
    Menus : 9,10
    Video #2
    ID : 10
    Format : JPEG
    Codec ID : jpeg
    Duration : 2h 13mn
    Bit rate mode : Variable
    Bit rate : 516 bps
    Width : 640 pixels
    Height : 268 pixels
    Display aspect ratio : 2.40:1
    Frame rate mode : Variable
    Frame rate : 0.002 fps
    Minimum frame rate : 0.001 fps
    Maximum frame rate : 0.003 fps
    Color space : YUV
    Chroma subsampling : 4:2:0
    Bit depth : 8 bits
    Compression mode : Lossy
    Bits/(Pixel*Frame) : 1.504
    Stream size : 472 KiB (0%)
    Title : Chapter Images
    Language : English
    Default : No
    Encoded date : UTC 2016-05-06 09:28:53
    Tagged date : UTC 2016-05-06 09:28:54
    Menu For : 1
    Audio #1
    ID : 2
    Format : AAC
    Format/Info : Advanced Audio Codec
    Format profile : LC
    Codec ID : 40
    Duration : 2h 13mn
    Bit rate mode : Variable
    Bit rate : 157 Kbps
    Maximum bit rate : 252 Kbps
    Channel(s) : 2 channels
    Channel positions : Front: L R
    Sampling rate : 48.0 KHz
    Frame rate : 46.875 fps (1024 spf)
    Compression mode : Lossy
    Stream size : 150 MiB (3%)
    Title : Russian Stereo
    Language : Russian
    Default : Yes
    Alternate group : 1
    Encoded date : UTC 2016-05-06 09:27:59
    Tagged date : UTC 2016-05-06 09:28:50
    Fallback From : 4
    Subtitles : 6,7
    Audio #2
    ID : 3
    Format : AAC
    Format/Info : Advanced Audio Codec
    Format profile : LC
    Codec ID : 40
    Duration : 2h 13mn
    Bit rate mode : Variable
    Bit rate : 157 Kbps
    Maximum bit rate : 261 Kbps
    Channel(s) : 2 channels
    Channel positions : Front: L R
    Sampling rate : 48.0 KHz
    Frame rate : 46.875 fps (1024 spf)
    Compression mode : Lossy
    Stream size : 149 MiB (3%)
    Title : English Stereo
    Language : English
    Default : No
    Alternate group : 1
    Encoded date : UTC 2016-05-06 09:27:59
    Tagged date : UTC 2016-05-06 09:28:50
    Fallback From : 5
    Audio #3
    ID : 4
    Format : AC-3
    Format/Info : Audio Coding 3
    Mode extension : CM (complete main)
    Format settings, Endianness : Big
    Codec ID : ac-3
    Duration : 2h 13mn
    Bit rate mode : Constant
    Bit rate : 640 Kbps
    Channel(s) : 6 channels
    Channel positions : Front: L C R, Side: L R, LFE
    Sampling rate : 48.0 KHz
    Frame rate : 31.250 fps (1536 spf)
    Bit depth : 16 bits
    Compression mode : Lossy
    Stream size : 610 MiB (13%)
    Title : Russian DD 5.1
    Language : Russian
    Default : Inherited From: 2
    Alternate group : 1
    Encoded date : UTC 2016-05-06 09:27:59
    Tagged date : UTC 2016-05-06 09:28:50
    Fallback To : 2
    Subtitles : 6,7
    Audio #4
    ID : 5
    Format : AC-3
    Format/Info : Audio Coding 3
    Mode extension : CM (complete main)
    Format settings, Endianness : Big
    Codec ID : ac-3
    Duration : 2h 13mn
    Bit rate mode : Constant
    Bit rate : 640 Kbps
    Channel(s) : 6 channels
    Channel positions : Front: L C R, Side: L R, LFE
    Sampling rate : 48.0 KHz
    Frame rate : 31.250 fps (1536 spf)
    Bit depth : 16 bits
    Compression mode : Lossy
    Stream size : 610 MiB (13%)
    Title : English DD 5.1
    Language : English
    Default : No
    Alternate group : 1
    Encoded date : UTC 2016-05-06 09:27:59
    Tagged date : UTC 2016-05-06 09:28:50
    Fallback To : 3
    Text #1
    ID : 6
    Format : Timed Text
    Muxing mode : sbtl
    Codec ID : tx3g
    Duration : 2h 8mn
    Bit rate mode : Variable
    Bit rate : 4 bps
    Stream size : 3.90 KiB (0%)
    Title : Russian forced
    Language : Russian
    Default : Yes
    Forced : Yes
    Alternate group : 2
    Encoded date : UTC 2016-05-06 09:27:59
    Tagged date : UTC 2016-05-06 09:28:41
    Subtitles For : 2,4
    Full Alternative : 7
    Text #2
    ID : 7
    Format : Timed Text
    Muxing mode : sbtl
    Codec ID : tx3g
    Duration : 2h 12mn
    Bit rate mode : Variable
    Bit rate : 111 bps
    Stream size : 107 KiB (0%)
    Title : Russian full
    Language : Russian
    Default : No
    Forced : No
    Alternate group : 2
    Encoded date : UTC 2016-05-06 09:27:59
    Tagged date : UTC 2016-05-06 09:28:49
    Subtitles For : 2,4
    Forced Alternative : 6
    Text #3
    ID : 8
    Format : Timed Text
    Muxing mode : sbtl
    Codec ID : tx3g
    Duration : 2h 12mn
    Bit rate mode : Variable
    Bit rate : 83 bps
    Stream size : 80.8 KiB (0%)
    Title : English full
    Language : English
    Default : No
    Forced : No
    Alternate group : 2
    Encoded date : UTC 2016-05-06 09:27:59
    Tagged date : UTC 2016-05-06 09:28:49
    Menu #1
    00:00:00.000 : Chapter 1
    00:09:14.429 : Chapter 2
    00:22:05.950 : Chapter 3
    00:31:31.973 : Chapter 4
    00:41:34.617 : Chapter 5
    00:52:18.052 : Chapter 6
    01:01:32.105 : Chapter 7
    01:09:13.983 : Chapter 8
    01:19:01.028 : Chapter 9
    01:25:13.692 : Chapter 10
    01:32:27.834 : Chapter 11
    01:41:16.487 : Chapter 12
    01:50:14.483 : Chapter 13
    02:01:07.760 : Chapter 14
    02:06:34.420 : Chapter 15
    Menu #2
    ID : 9
    Codec ID : text
    Duration : 2h 13mn
    Language : English
    Encoded date : UTC 2016-05-06 09:28:50
    Tagged date : UTC 2016-05-06 09:28:50
    Menu For : 1
    00:00:00.000 : Chapter 1
    00:09:14.429 : Chapter 2
    00:22:05.950 : Chapter 3
    00:31:31.973 : Chapter 4
    00:41:34.617 : Chapter 5
    00:52:18.052 : Chapter 6
    01:01:32.105 : Chapter 7
    01:09:13.983 : Chapter 8
    01:19:01.028 : Chapter 9
    01:25:13.692 : Chapter 10
    01:32:27.834 : Chapter 11
    01:41:16.487 : Chapter 12
    01:50:14.483 : Chapter 13
    02:01:07.760 : Chapter 14
    02:06:34.420 : Chapter 15
    Bit rate mode : VBR

    x264 лог

    x264 [info]: frame I:1549  Avg QP:15.18  size: 86502
    x264 [info]: frame P:69905 Avg QP:17.70  size: 30287
    x264 [info]: frame B:120115 Avg QP:18.86  size: 10335
    x264 [info]: consecutive B-frames:  4.5% 22.9% 38.2% 34.4%
    x264 [info]: mb I  I16..4:  8.8% 62.4% 28.8%
    x264 [info]: mb P  I16..4:  2.2%  7.7%  3.0%  P16..4: 45.1% 25.2% 10.3%  0.0%  0.0%    skip: 6.5%
    x264 [info]: mb B  I16..4:  0.2%  1.0%  0.3%  B16..8: 48.0% 12.2%  1.8%  direct: 4.3%  skip:32.3%  L0:42.6% L1:51.3% BI: 6.0%
    x264 [info]: 8x8 transform intra:61.0% inter:46.1%
    x264 [info]: coded y,uvDC,uvAC intra: 81.3% 70.8% 43.0% inter: 28.8% 16.5% 7.6%
    x264 [info]: i16 v,h,dc,p: 56% 12%  6% 25%
    x264 [info]: i8 v,h,dc,ddl,ddr,vr,hd,vl,hu: 11%  7%  6% 11% 15% 14% 14% 11% 10%
    x264 [info]: i4 v,h,dc,ddl,ddr,vr,hd,vl,hu: 11%  8%  4% 11% 17% 15% 14% 10%  9%
    x264 [info]: i8c dc,h,v,p: 51% 19% 20% 11%
    x264 [info]: ref P L0: 69.8% 17.7% 12.5%
    x264 [info]: ref B L0: 78.0% 22.0%
    x264 [info]: kb/s:3497.02

    Скриншоты

    -

    Релиз подготовлен для просмотра на Apple TV, iPad, iPhone, iPod Touch.
    Для просмотра данного релиза на компьютере с ОС Windows рекомендуется использовать VLC media player
    Скачать .torrent

    Скачать торрент-файл бесплатно и на максимальной скорости!

    Как скачивать? · Что такое торрент? · Рейтинг и ограничения

    !ВНИМАНИЕ!
    Сайт не распространяет и не хранит электронные версии произведений, а занимается лишь лишь предоставлением доступа к создаваемому пользователями каталогу ссылок на торрент-файлы, которые содержат только списки хеш-сумм, убедительная просьба с жалобами обращаться напрямую к пользователю. Файлы для обмена на трекере предоставлены пользователями сайта, и администрация не несёт ответственности за их содержание. Просьба не заливать файлы, защищенные авторскими правами, а также файлы нелегального содержания!


    _________________
    [Профиль] [ЛС]
    Показать сообщения:    
    Ответить на тему

    Текущее время: Сегодня, в 12:31

    Часовой пояс: GMT + 2



    Вы не можете начинать темы
    Вы не можете отвечать на сообщения
    Вы не можете редактировать свои сообщения
    Вы не можете удалять свои сообщения
    Вы не можете голосовать в опросах
    Вы не можете прикреплять файлы к сообщениям
    Вы не можете скачивать файлы