BitTorrentTracker PerecTracker.org
BitTorrentTracker PerecTracker.org
    
Регистрация  ·  Вход
 
 · 
Забыли пароль?

  • Высотка / High-Rise (Бен Уитли / Ben Wheatley) [2015, Великобритания, Драма, WEB-DLRip] MVO (FocusStudio)

    Ответить на тему
     
    Автор Сообщение

    Light

    Создавать темы 06-Май-2016 13:49

           

    [Цитировать]

    Высотка / High-Rise
    «Добро пожаловать в мир будущего»
    -Год выхода: 2015
    Выпущено: Великобритания, Ирландия, Бельгия / Film4
    Жанр: драма
    Продолжительность: 01:58:49
    Перевод: Профессиональный (многоголосый закадровый) FocusStudio
    Субтитры: нет-Режиссер:
    Бен Уитли / Ben Wheatley-В ролях:
    Том Хиддлстон, Джереми Айронс, Сиенна Миллер, Люк Эванс, Элизабет Мосс, Джеймс Пьюрфой, Кили Хоуз, Питер Фердинандо, Сиенна Гиллори, Рис Шерсмит, Энцо Чиленти, Август Прю, Рентон Скиннер, Стэйси Мартин, Тони Вэй, Лейла Миммек, Луис Сюк, Нил Мэскелл, Александра Уивер, Джулия Дикин-О фильме:
    Элитная высотка — идеальная модель мира будущего. Здесь есть всё для комфортной и роскошной жизни. Но зависть, соперничество, жажда острых ощущений постепенно разжигают открытую вражду между жителями высотки, заставляя забыть о законах морали даже лучших из них.-Релиз групп
    | | IMDB | КиноПоиск | Сэмпл |-Качество: WEB-DLRip [High-Rise.2015.720p.WEB-DL.DD5.1.H264-FGT]
    Формат: AVI
    Видео: 720x304 (2.37:1), 23.976 fps, XviD build 67 ~1364 kbps avg, 0.26 bit/pixel
    Аудио: 48 kHz, AC3 Dolby Digital, 3/2 (L,C,R,l,r) + LFE ch, ~384 kbps avg- | Внимание! В фильме присутствуют сцены с обнажённой натурой и ненормативная лексика!-

    Скриншоты

    -

    MediaInfo

    General
    Complete name                            : D:\Vysotka_2015_WEB-DLRip_by_Dalemake.avi
    Format                                   : AVI
    Format/Info                              : Audio Video Interleave
    File size                                : 1.46 GiB
    Duration                                 : 1h 58mn
    Overall bit rate                         : 1 757 Kbps
    Writing application                      : VirtualDubMod 1.5.10.3 | www.virtualdub-fr.org || (build 2550/release)
    Writing library                          : VirtualDubMod build 2550/release
    Video
    ID                                       : 0
    Format                                   : MPEG-4 Visual
    Format profile                           : Advanced Simple@L5
    Format settings, BVOP                    : 1
    Format settings, QPel                    : No
    Format settings, GMC                     : No warppoints
    Format settings, Matrix                  : Custom
    Codec ID                                 : XVID
    Codec ID/Hint                            : XviD
    Duration                                 : 1h 58mn
    Bit rate                                 : 1 364 Kbps
    Width                                    : 720 pixels
    Height                                   : 304 pixels
    Display aspect ratio                     : 2.35:1
    Frame rate                               : 23.976 (23976/1000) fps
    Color space                              : YUV
    Chroma subsampling                       : 4:2:0
    Bit depth                                : 8 bits
    Scan type                                : Progressive
    Compression mode                         : Lossy
    Bits/(Pixel*Frame)                       : 0.260
    Stream size                              : 1.13 GiB (78%)
    Writing library                          : XviD 67
    Audio
    ID                                       : 1
    Format                                   : AC-3
    Format/Info                              : Audio Coding 3
    Mode extension                           : CM (complete main)
    Format settings, Endianness              : Big
    Codec ID                                 : 2000
    Duration                                 : 1h 58mn
    Bit rate mode                            : Constant
    Bit rate                                 : 384 Kbps
    Channel(s)                               : 6 channels
    Channel positions                        : Front: L C R, Side: L R, LFE
    Sampling rate                            : 48.0 KHz
    Frame rate                               : 31.250 fps (1536 spf)
    Compression mode                         : Lossy
    Stream size                              : 326 MiB (22%)
    Alignment                                : Split accross interleaves
    Interleave, duration                     : 42 ms (1.00 video frame)
    Interleave, preload duration             : 500 ms
    -
    Скачать .torrent

    Скачать торрент-файл бесплатно и на максимальной скорости!

    Как скачивать? · Что такое торрент? · Рейтинг и ограничения

    !ВНИМАНИЕ!
    Сайт не распространяет и не хранит электронные версии произведений, а занимается лишь лишь предоставлением доступа к создаваемому пользователями каталогу ссылок на торрент-файлы, которые содержат только списки хеш-сумм, убедительная просьба с жалобами обращаться напрямую к пользователю. Файлы для обмена на трекере предоставлены пользователями сайта, и администрация не несёт ответственности за их содержание. Просьба не заливать файлы, защищенные авторскими правами, а также файлы нелегального содержания!


    _________________
    [Профиль] [ЛС]
    Показать сообщения:    
    Ответить на тему

    Текущее время: Сегодня, в 06:52

    Часовой пояс: GMT + 2



    Вы не можете начинать темы
    Вы не можете отвечать на сообщения
    Вы не можете редактировать свои сообщения
    Вы не можете удалять свои сообщения
    Вы не можете голосовать в опросах
    Вы не можете прикреплять файлы к сообщениям
    Вы не можете скачивать файлы