BitTorrentTracker PerecTracker.org
BitTorrentTracker PerecTracker.org
    
Регистрация  ·  Вход
 
 · 
Забыли пароль?

  • Мама не горюй (Максим Пежемский) [1997, комедия, криминал, DVDRip-AVC]

    Ответить на тему
     
    Автор Сообщение

    Flirldrerve

    Создавать темы 06-Май-2016 09:44

           

    [Цитировать]

    Мама не горюй
    Жанр: комедия, криминал
    Год выпуска: 1997
    Продолжительность: 01:21:57
    -
    Режиссёр: Максим Пежемский
    В ролях: Гоша Куценко, Евгений Сидихин, Сергей Векслер, Валерий Приемыхов, Нина Русланова, Александр Баширов, Елена Шевченко, Иван Охлобыстин, Николай Чиндяйкин, Сергей Колтаков, Сергей Данилевич, Маша Машкова, Иван Бортник, Андрей Панин, Маша Бакланова, Олеся Судзиловская, Дмитрий Петухов, Виктор Вержбицкий, Игорь Юраш
    -
    Описание: Была свадьба. Обычная такая Питерская свадьба. Женился морячок! Но не какой-то "моряк - с печки бряк", а настоящий моряк, то есть реальный такой морячок, весь в морском прикиде, бушлат там, бескозырка, лента в якорях и все такое. Гуляли хорошо, ящиков на десять водки. Но тут случился небольшой этот... как его... инцест... инцис... инцистдент, короче. Зашел в это кафе на огонек важный мужчина по кличке Турист. Ну, конечно, не то чтобы этот мужчина по горам с рюкзачком шаробанился, песни там у костра и все такое - нет! Мужчина был вполне даже конкретный. Он некоторым образом был хозяином всех кафе и ресторанов в округе. Ну, вроде папа. Хотя и Турист. Просто Турист - его так все звали, чтобы подчеркнуть уважение. Потому что все, кто Туриста не уважал, давно уже отдыхали, причем может быть даже на дне морском...
    -
    Доп. информация:
    -
    Сэмпл: https://www.sendspace.com/file/9o13x6
    -
    Качество видео: DVDRip-AVC (DVD9/Mad Cat)
    Формат видео: MKV
    Видео: 692x476 (3:2) @ 736x476, 25 fps, AVC, ~2 350 Kbps, 0.285 bits/pixel
    Аудио: 48 kHz, AC3 Dolby Digital, 2/0 (L,R) ch, ~192 kbps

    MediaInfo

    x264 [info]: frame I:631 Avg QP:17.58 size: 51264
    x264 [info]: frame P:24895 Avg QP:20.04 size: 23517
    x264 [info]: frame B:97415 Avg QP:23.27 size: 8487-General
    Unique ID : 188413054520637091655635798997205679875 (0x8DBF08CBE9E796ED92B2501D89BA7F03)
    Complete name : C:\Users\ALEX\Downloads\Фильмы\Мама не горюй.1997.DVDRip-AVC.x264.AC3.mkv
    Format : Matroska
    Format version : Version 4 / Version 2
    File size : 1.46 GiB
    Duration : 1h 21mn
    Overall bit rate : 2 544 Kbps
    Encoded date : UTC 2016-05-05 17:54:11
    Writing application : mkvmerge v8.5.2 ('Crosses') 64bit
    Writing library : libebml v1.3.3 + libmatroska v1.4.4
    Video
    ID : 1
    Format : AVC
    Format/Info : Advanced Video Codec
    Format profile : High@L4.1
    Format settings, CABAC : Yes
    Format settings, ReFrames : 14 frames
    Codec ID : V_MPEG4/ISO/AVC
    Duration : 1h 21mn
    Bit rate : 2 350 Kbps
    Width : 692 pixels
    Height : 476 pixels
    Display aspect ratio : 3:2
    Frame rate mode : Constant
    Frame rate : 25.000 fps
    Color space : YUV
    Chroma subsampling : 4:2:0
    Bit depth : 8 bits
    Scan type : Progressive
    Bits/(Pixel*Frame) : 0.285
    Stream size : 1.35 GiB (92%)
    Title : Мама не горюй
    Writing library : x264 core 148 r2638 7599210
    Encoding settings : cabac=1 / ref=14 / deblock=1:-2:-2 / analyse=0x3:0x113 / me=umh / subme=11 / psy=1 / psy_rd=1.00:0.10 / mixed_ref=1 / me_range=32 / chroma_me=1 / trellis=2 / 8x8dct=1 / cqm=0 / deadzone=21,11 / fast_pskip=0 / chroma_qp_offset=-3 / threads=6 / lookahead_threads=1 / sliced_threads=0 / nr=0 / decimate=1 / interlaced=0 / bluray_compat=0 / constrained_intra=0 / bframes=10 / b_pyramid=2 / b_adapt=2 / b_bias=0 / direct=3 / weightb=1 / open_gop=0 / weightp=2 / keyint=250 / keyint_min=25 / scenecut=40 / intra_refresh=0 / rc=2pass / mbtree=0 / bitrate=2350 / ratetol=1.0 / qcomp=0.60 / qpmin=0 / qpmax=69 / qpstep=4 / cplxblur=20.0 / qblur=0.5 / ip_ratio=1.40 / pb_ratio=1.30 / aq=1:1.00
    Language : Russian
    Default : Yes
    Forced : No
    Audio
    ID : 2
    Format : AC-3
    Format/Info : Audio Coding 3
    Mode extension : CM (complete main)
    Format settings, Endianness : Big
    Codec ID : A_AC3
    Duration : 1h 21mn
    Bit rate mode : Constant
    Bit rate : 192 Kbps
    Channel(s) : 2 channels
    Channel positions : Front: L R
    Sampling rate : 48.0 KHz
    Frame rate : 31.250 fps (1536 spf)
    Compression mode : Lossy
    Stream size : 113 MiB (8%)
    Title : Original
    Language : Russian
    Default : Yes
    Forced : No

    Скриншоты

    Скачать .torrent

    Скачать торрент-файл бесплатно и на максимальной скорости!

    Как скачивать? · Что такое торрент? · Рейтинг и ограничения

    !ВНИМАНИЕ!
    Сайт не распространяет и не хранит электронные версии произведений, а занимается лишь лишь предоставлением доступа к создаваемому пользователями каталогу ссылок на торрент-файлы, которые содержат только списки хеш-сумм, убедительная просьба с жалобами обращаться напрямую к пользователю. Файлы для обмена на трекере предоставлены пользователями сайта, и администрация не несёт ответственности за их содержание. Просьба не заливать файлы, защищенные авторскими правами, а также файлы нелегального содержания!


    _________________
    [Профиль] [ЛС]
    Показать сообщения:    
    Ответить на тему

    Текущее время: Сегодня, в 08:04

    Часовой пояс: GMT + 2



    Вы не можете начинать темы
    Вы не можете отвечать на сообщения
    Вы не можете редактировать свои сообщения
    Вы не можете удалять свои сообщения
    Вы не можете голосовать в опросах
    Вы не можете прикреплять файлы к сообщениям
    Вы не можете скачивать файлы