BitTorrentTracker PerecTracker.org
BitTorrentTracker PerecTracker.org
    
Регистрация  ·  Вход
 
 · 
Забыли пароль?

  • Под защитой / EP-Executive Protection (Оливье Грюнер / Olivier Gruner) [2015, США, боевик, SATRip] MVO (Кинопоказ)

    Ответить на тему
     
    Автор Сообщение

    Light

    Создавать темы 06-Май-2016 09:44

           

    [Цитировать]

    Под защитой / EP-Executive Protection
    Страна: США
    Жанр: боевик
    Год выпуска: 2015
    Продолжительность: 01:27:00
    Перевод: Профессиональный (многоголосый закадровый) Кинопоказ
    Cубтитры: нет
    Оригинальная аудиодорожка: нет
    Режиссер: Оливье Грюнер / Olivier Gruner
    В ролях: Клодия Уэллс
    Саша Митчелл
    Кристофер Шоуэрман
    Брук Ньютон
    Оливье Грюнер
    Джейсон Кэбелл
    Лоррэйн Зифф
    Маршал Хилтон
    Микайла С. Кэмпбелл
    Тони Невада
    Описание: Макс проработал в специальном подразделение ФБР по программе «Защиты Свидетелей». Новое дело, где он должен защищать одного крупного бизнесмена от пуль наемных убийц оказалось слишком сложным и Макс вынужден применить все средства и знания для исполнения очередного заказа.
    Сэмпл: http://multi-up.com/1100388
    Качество видео: SATRip
    Формат видео: AVI
    Видео: MPEG4, XviD, 720x304 (2.35:1), 25.000 fps, 2 040 Kbps (0.373 bit/pixel)
    Аудио: AC-3, 48.0 KHz, 2 ch, 192 Kbps, CBR

    MediaInfo

    Общее
    Полное имя : M:\Под защитой.avi
    Формат : AVI
    Формат/Информация : Audio Video Interleave
    Размер файла : 1,36 Гбайт
    Продолжительность : 1 ч. 27 м.
    Общий поток : 2242 Кбит/сек
    Название фильма : Под защитой / EP-Executive Protection (2015)
    Программа кодирования : VirtualDubMod 1.5.10.2 (build 2540/release)
    Авторское право : miha2154
    Видео
    Идентификатор : 0
    Формат : MPEG-4 Visual
    Профиль формата : Advanced Simple@L5
    Параметр BVOP формата : 1
    Параметр QPel формата : Нет
    Параметр GMC формата : Без точки перехода
    Параметр матрицы формата : Выборочная
    Идентификатор кодека : XVID
    Идентификатор кодека/Подсказка : XviD
    Продолжительность : 1 ч. 27 м.
    Битрейт : 2040 Кбит/сек
    Ширина : 720 пикселей
    Высота : 304 пикселя
    Соотношение сторон : 2,35:1
    Частота кадров : 25,000 кадров/сек
    Цветовое пространство : YUV
    Субдискретизация насыщенности : 4:2:0
    Битовая глубина : 8 бит
    Тип развёртки : Прогрессивная
    Метод сжатия : С потерями
    Бит/(Пиксели*Кадры) : 0.373
    Размер потока : 1,24 Гбайт (91%)
    Библиотека кодирования : XviD 65
    Аудио
    Идентификатор : 1
    Формат : AC-3
    Формат/Информация : Audio Coding 3
    Расширение режима : CM (complete main)
    Параметр Endianness формата : Big
    Идентификатор кодека : 2000
    Продолжительность : 1 ч. 27 м.
    Вид битрейта : Постоянный
    Битрейт : 192 Кбит/сек
    Каналы : 2 канала
    Расположение каналов : Front: L R
    Частота : 48,0 КГц
    Частота кадров : 31,250 кадров/сек (1536 spf)
    Метод сжатия : С потерями
    Размер потока : 119 Мбайт (9%)
    Выравнивание : Разделение по промежуткам
    Продолжительность промежутка : 40 мс. (1,00 видеокадр)
    Время предзагрузки промежутка : 500 мс.
    Заголовок : Профессиональный (многоголосый закадровый) Кинопоказ

    Скриншот c названием фильма

    Скриншоты


    Скачать .torrent

    Скачать торрент-файл бесплатно и на максимальной скорости!

    Как скачивать? · Что такое торрент? · Рейтинг и ограничения

    !ВНИМАНИЕ!
    Сайт не распространяет и не хранит электронные версии произведений, а занимается лишь лишь предоставлением доступа к создаваемому пользователями каталогу ссылок на торрент-файлы, которые содержат только списки хеш-сумм, убедительная просьба с жалобами обращаться напрямую к пользователю. Файлы для обмена на трекере предоставлены пользователями сайта, и администрация не несёт ответственности за их содержание. Просьба не заливать файлы, защищенные авторскими правами, а также файлы нелегального содержания!


    _________________
    [Профиль] [ЛС]
    Показать сообщения:    
    Ответить на тему

    Текущее время: Сегодня, в 22:37

    Часовой пояс: GMT + 2



    Вы не можете начинать темы
    Вы не можете отвечать на сообщения
    Вы не можете редактировать свои сообщения
    Вы не можете удалять свои сообщения
    Вы не можете голосовать в опросах
    Вы не можете прикреплять файлы к сообщениям
    Вы не можете скачивать файлы