BitTorrentTracker PerecTracker.org
BitTorrentTracker PerecTracker.org
    
Регистрация  ·  Вход
 
 · 
Забыли пароль?

  • Третий лишний 2 / Ted 2 (Сет МакФарлейн / Seth MacFarlane) [2015, США, комедия, BDRip-AVC] [Расширенная версия / Unrated Version] VO (Есарев) + Dub (со вставками VO Есарев) + Original (Eng) + Sub (Eng)

    Ответить на тему
     
    Автор Сообщение

    Light

    Создавать темы 06-Май-2016 09:44

           

    [Цитировать]

    Третий лишний 2 / Ted 2Год выпуска: 2015
    Страна: США
    Жанр: комедия
    Продолжительность: 02:05:50
    Перевод:
    - одноголосый закадровый, Д. Есарев
    - профессиональный дублированный (iTunes), со вставками VO Д. Есарев
    Cубтитры: английские
    Режиссер: Сет МакФарлейн / Seth MacFarlane
    В ролях: Марк Уолберг, Сет МакФарлейн, Аманда Сайфред, Джованни Рибизи, Джон Слэттери, Морган Фримен, Джессика Барт, Сэм Дж. Джонс, Патрик Варбертон, Майкл Дорн
    Описание: Плюшевый беспредельщик продолжает сводить с ума чопорную интеллигенцию. На этот раз говорящий медвежонок с большим эго и его длинноногая блондинка решили завести ребёнка. Там, где не постаралась природа, на помощь приходят звёздные доноры, городские сумасшедшие и верный друг Джонни. Он только что расстался с Лори и готов к новым авантюрам. Третий здесь совсем не лишний.
    Рейтинг MPAA: -Доп. информация:
    : 6.4/10
    : 5.941/10
    Sample

    Интересные факты о фильме

    • В сцене на Comic-Con персонаж Патрика Варбертона одет в костюм Тика, а персонаж Майкла Дорна – в костюм Ворфа. Варбертон играл Тика в сериале «Тик-герой» (2001-2002), Дорн играл лейтенанта Ворфа в сериале «Звездный путь: Следующее поколение» (1987-1994).
    • Когда Тед ведет машину, он пародирует классическую сцену Джона Кэнди из фильма «Самолетом, поездом, машиной» (1987).
    • Мила Кунис не смогла сыграть роль Лори, потому что была беременна ребенком от Эштона Кутчера.
    • У Стивена Коллинза была эпизодическая роль в этом фильме. Однако после его признания в растлении малолетних девушек, сцены с его участием были удалены.
    • Когда Тед поет, чтобы доказать, что у него есть душа, он поет ту же песню, что пел Брайан Гриффин в 7-й серии 4-го сезона сериала «Гриффины» (1999) (Brian the Bachelor).
    • Песня, которую Аманда Сайфред поет в сцене у костра, актриса исполняла сама. Эта песня была написана специально для фильма, текст придумал Сет МакФарлейн.
    • Сюжет фильма пришел в голову Сету МакФарлейну после прочтения серии романов Джона Джейкса о Гражданской войне, во время съемок фильма «Миллион способов потерять голову» (2014).
    • Сцена, в которой Джон опрокидывает на себя медицинский шкаф-стеллаж с образцами спермы, повторяет сцену с Питером Гриффином из 22-й серии 4-го сезона сериала «Гриффины» (1999) (Sibling Rivalry).
    • Крик Вильгельма можно услышать в сцене драки на Comic-Con.
    • В трейлере есть сцена автомобильной погони, в которой происходит авария, после чего Саманта спрашивает Теда и Джона — в порядке ли они. Этой сцены нет в финальной версии фильма.
    • Персонаж Моргана Фримана был назван в честь сценариста сериала «Гриффины» (1999) Патрика Мейяна.
    • Когда Джон, Сэм и Тед находят поле марихуаны, Сам говорит, что «сюда должны были послать поэта» — это отсылка к аналогичной фразе Джоди Фостер из фильма «Контакт» (1997).
    • Во время сцены драки на Comic Con, в одном кадре можно заметить Питера Гриффина, который дерется с курицей, это отсылка к дракам этих персонажей в сериале «Гриффины» (1999).
    Качество: BDRip-AVC (исх. Blu-ray @ BlueBird)
    Формат: MKV
    Видео: H.264, 1152x480 (2.4:1), 2419 kbps, 23,976 fps
    Аудио №1: Russian, AC3, 6ch, 48 kHz, 448 kbps (Одноголосый, Есарев)
    Аудио №2: Russian, AC3, 6ch, 48 kHz, 384 kbps (Дубляж со вставками VO Есарев)
    Аудио №3: English, AC3, 6ch, 48 kHz, 448 kbps (Оригинал)
    Субтитры №1: English, SRT
    Субтитры №2: English, SRT, комментрии-

    Сравнение с исходником

    Blu-Ray

    tRuAVC

    Mediainfo

    Format : Matroska
    Format version : Version 4 / Version 2
    File size : 3.25 GiB
    Duration : 2h 5mn
    Overall bit rate : 3 701 Kbps
    Movie name : Ted 2 (2015) BDRip
    Encoded date : UTC 2016-05-05 19:05:32
    Writing application : mkvmerge v8.3.0 ('Over the Horizon') 64bit
    Writing library : libebml v1.3.1 + libmatroska v1.4.2
    DURATION : 02:05:50.976000000
    NUMBER_OF_FRAMES : 235968
    NUMBER_OF_BYTES : 422854656
    _STATISTICS_WRITING_APP : mkvmerge v8.3.0 ('Over the Horizon') 64bit
    _STATISTICS_WRITING_DATE_UTC : 2016-05-05 19:05:32
    _STATISTICS_TAGS : BPS DURATION NUMBER_OF_FRAMES NUMBER_OF_BYTES
    Attachment : Yes
    Video
    ID : 1
    Format : AVC
    Format/Info : Advanced Video Codec
    Format profile : High@L4.1
    Format settings, CABAC : Yes
    Format settings, ReFrames : 14 frames
    Codec ID : V_MPEG4/ISO/AVC
    Duration : 2h 5mn
    Bit rate : 2 348 Kbps
    Width : 1 152 pixels
    Height : 480 pixels
    Display aspect ratio : 2.40:1
    Frame rate mode : Constant
    Frame rate : 23.976 fps
    Color space : YUV
    Chroma subsampling : 4:2:0
    Bit depth : 8 bits
    Scan type : Progressive
    Bits/(Pixel*Frame) : 0.177
    Stream size : 2.06 GiB (63%)
    Writing library : x264 core 148 r2665kMod a01e339
    Encoding settings : cabac=1 / ref=14 / deblock=1:-3:-2 / analyse=0x3:0x133 / me=umh / subme=11 / psy=1 / fade_compensate=0.00 / psy_rd=1.10:0.03 / mixed_ref=1 / me_range=32 / chroma_me=1 / trellis=2 / 8x8dct=1 / cqm=0 / deadzone=21,11 / fast_pskip=0 / chroma_qp_offset=-3 / threads=6 / lookahead_threads=1 / sliced_threads=0 / nr=0 / decimate=1 / interlaced=0 / bluray_compat=0 / constrained_intra=0 / fgo=0 / bframes=16 / b_pyramid=2 / b_adapt=2 / b_bias=0 / direct=1 / weightb=1 / open_gop=0 / weightp=2 / keyint=250 / keyint_min=23 / scenecut=40 / intra_refresh=0 / rc_lookahead=40 / rc=crf / mbtree=0 / crf=17.5000 / qcomp=0.65 / qpmin=0 / qpmax=69 / qpstep=4 / vbv_maxrate=62500 / vbv_bufsize=78125 / crf_max=0.0 / nal_hrd=none / filler=0 / ip_ratio=1.40 / pb_ratio=1.30 / aq=3:0.80
    Language : English
    Default : Yes
    Forced : No
    DURATION : 02:05:50.919000000
    NUMBER_OF_FRAMES : 181041
    NUMBER_OF_BYTES : 2282962358
    _STATISTICS_WRITING_APP : mkvmerge v8.3.0 ('Over the Horizon') 64bit
    _STATISTICS_WRITING_DATE_UTC : 2016-05-05 19:05:32
    _STATISTICS_TAGS : BPS DURATION NUMBER_OF_FRAMES NUMBER_OF_BYTES
    Matrix coefficients : BT.709
    Audio #1
    ID : 2
    Format : AC-3
    Format/Info : Audio Coding 3
    Mode extension : CM (complete main)
    Format settings, Endianness : Big
    Codec ID : A_AC3
    Duration : 2h 5mn
    Bit rate mode : Constant
    Bit rate : 448 Kbps
    Channel(s) : 6 channels
    Channel positions : Front: L C R, Side: L R, LFE
    Sampling rate : 48.0 KHz
    Bit depth : 16 bits
    Compression mode : Lossy
    Stream size : 403 MiB (12%)
    Title : VO, Esarev
    Language : Russian
    Default : Yes
    Forced : No
    Audio #2
    ID : 3
    Format : AC-3
    Format/Info : Audio Coding 3
    Mode extension : CM (complete main)
    Format settings, Endianness : Big
    Codec ID : A_AC3
    Duration : 2h 5mn
    Bit rate mode : Constant
    Bit rate : 384 Kbps
    Channel(s) : 6 channels
    Channel positions : Front: L C R, Side: L R, LFE
    Sampling rate : 48.0 KHz
    Bit depth : 16 bits
    Compression mode : Lossy
    Stream size : 346 MiB (10%)
    Title : Dub + VO, Esarev
    Language : Russian
    Default : No
    Forced : No
    Audio #3
    ID : 4
    Format : AC-3
    Format/Info : Audio Coding 3
    Mode extension : CM (complete main)
    Format settings, Endianness : Big
    Codec ID : A_AC3
    Duration : 2h 5mn
    Bit rate mode : Constant
    Bit rate : 448 Kbps
    Channel(s) : 6 channels
    Channel positions : Front: L C R, Side: L R, LFE
    Sampling rate : 48.0 KHz
    Bit depth : 16 bits
    Compression mode : Lossy
    Stream size : 403 MiB (12%)
    Title : Original
    Language : English
    Default : No
    Forced : No
    Text #1
    ID : 5
    Format : UTF-8
    Codec ID : S_TEXT/UTF8
    Codec ID/Info : UTF-8 Plain Text
    Language : English
    Default : No
    Forced : No
    Text #2
    ID : 6
    Format : UTF-8
    Codec ID : S_TEXT/UTF8
    Codec ID/Info : UTF-8 Plain Text
    Title : Commentary by Seth MacFarlane, Alec Sulkin, Wellesley Wild, Jessica Barth
    Language : English
    Default : No
    Forced : No
    Menu
    00:00:00.000 : en:00:00:00.000
    00:09:08.006 : en:00:09:08.006
    00:17:30.508 : en:00:17:30.508
    00:22:03.906 : en:00:22:03.906
    00:30:27.409 : en:00:30:27.409
    00:39:22.402 : en:00:39:22.402
    00:48:15.226 : en:00:48:15.226
    00:53:39.550 : en:00:53:39.550
    01:00:09.356 : en:01:00:09.356
    01:04:54.057 : en:01:04:54.057
    01:10:15.044 : en:01:10:15.044
    01:16:16.238 : en:01:16:16.238
    01:20:26.780 : en:01:20:26.780
    01:26:08.830 : en:01:26:08.830
    01:32:42.682 : en:01:32:42.682
    01:39:39.473 : en:01:39:39.473
    01:45:14.224 : en:01:45:14.224
    01:49:59.218 : en:01:49:59.218
    01:54:50.217 : en:01:54:50.217
    01:58:43.491 : en:01:58:43.491

    x264 log

    x264 [info]: frame I:1969 Avg QP:15.94 size: 88290
    x264 [info]: frame P:38141 Avg QP:17.84 size: 26965
    x264 [info]: frame B:140931 Avg QP:20.72 size: 7668
    x264 [info]: consecutive B-frames: 2.0% 1.8% 6.8% 24.2% 20.7% 30.7% 6.0% 2.5% 1.3% 0.7% 0.6% 0.8% 1.5% 0.1% 0.1% 0.1% 0.2%
    x264 [info]: mb I I16..4: 5.0% 72.2% 22.9%
    x264 [info]: mb P I16..4: 0.3% 7.4% 1.5% P16..4: 29.8% 34.5% 16.0% 3.4% 0.5% skip: 6.7%
    x264 [info]: mb B I16..4: 0.0% 0.7% 0.2% B16..8: 33.2% 20.3% 3.7% direct: 4.2% skip:37.7% L0:42.6% L1:42.5% BI:15.0%
    x264 [info]: 8x8 transform intra:78.0% inter:55.9%
    x264 [info]: coded y,uvDC,uvAC intra: 93.8% 92.7% 80.3% inter: 18.5% 16.4% 5.9%
    x264 [info]: i16 v,h,dc,p: 27% 14% 5% 54%
    x264 [info]: i8 v,h,dc,ddl,ddr,vr,hd,vl,hu: 10% 10% 5% 9% 13% 13% 13% 13% 14%
    x264 [info]: i4 v,h,dc,ddl,ddr,vr,hd,vl,hu: 11% 10% 4% 9% 15% 14% 13% 11% 13%
    x264 [info]: i8c dc,h,v,p: 43% 21% 18% 17%
    x264 [info]: Weighted P-Frames: Y:4.2% UV:2.9%
    x264 [info]: ref P L0: 46.7% 10.4% 16.6% 6.2% 5.1% 3.6% 3.1% 1.6% 1.5% 1.2% 1.1% 0.9% 0.9% 0.9% 0.1% 0.0%
    x264 [info]: ref B L0: 70.4% 12.1% 6.1% 3.1% 2.1% 1.8% 1.3% 0.8% 0.7% 0.6% 0.5% 0.3% 0.2%
    x264 [info]: ref B L1: 91.4% 8.6%
    x264 [info]: kb/s:2418.74
    x264 [info]: encoded 181041 frames, 7.07 fps, 2418.74 kb/s, duration 7:07:02.02

    -

    Скриншоты


    -Релиз от группы -
    Скачать .torrent

    Скачать торрент-файл бесплатно и на максимальной скорости!

    Как скачивать? · Что такое торрент? · Рейтинг и ограничения

    !ВНИМАНИЕ!
    Сайт не распространяет и не хранит электронные версии произведений, а занимается лишь лишь предоставлением доступа к создаваемому пользователями каталогу ссылок на торрент-файлы, которые содержат только списки хеш-сумм, убедительная просьба с жалобами обращаться напрямую к пользователю. Файлы для обмена на трекере предоставлены пользователями сайта, и администрация не несёт ответственности за их содержание. Просьба не заливать файлы, защищенные авторскими правами, а также файлы нелегального содержания!


    _________________
    [Профиль] [ЛС]
    Показать сообщения:    
    Ответить на тему

    Текущее время: Сегодня, в 23:21

    Часовой пояс: GMT + 2



    Вы не можете начинать темы
    Вы не можете отвечать на сообщения
    Вы не можете редактировать свои сообщения
    Вы не можете удалять свои сообщения
    Вы не можете голосовать в опросах
    Вы не можете прикреплять файлы к сообщениям
    Вы не можете скачивать файлы