BitTorrentTracker PerecTracker.org
BitTorrentTracker PerecTracker.org
    
Регистрация  ·  Вход
 
 · 
Забыли пароль?

  • [ATV3] Герой (Юрий Васильев) [2016, Россия, драма, военный, WEB-DL HD (1080p)] Original

    Ответить на тему
     
    Автор Сообщение

    rechyn

    Создавать темы 06-Май-2016 01:36

           

    [Цитировать]

    Герой
    "С верой за Россию"
    7.440 / 10
    -Год выпуска: 2016
    Страна: Россия
    Жанр: драма, военный
    Продолжительность: 76 мин. (01:16:08)
    Перевод: Не требуется
    Оригинальная аудиодорожка: Есть
    Cубтитры: Нет
    Режиссёр: Юрий Васильев
    Сценарий: Ольга Погодина-Кузмина, Наталия Дорошкевич
    Продюсер: Эльмира Айнулова, Наталия Дорошкевич, Мария Журомская
    Оператор: Рамунас Грейчюс
    Композитор: Эдуард Артемьев
    Художник: Юргита Гердвилайте, Гульнара Шахмилова
    В ролях: Дима Билан, Светлана Иванова, Александр Балуев, Татьяна Лютаева, Юлия Пересильд, Александр Головин, Марат Башаров, Александр Адабашьян, Лилита Озолиня, Александр Васильев
    Бюджет: $7 000 000
    Сборы в России: $1 534 366
    Премьера (РФ): 31 марта 2016, Каропрокат
    Описание: Начало ХХ века. Юная княжна Вера Чернышева и поручик Андрей Долматов знакомятся при весьма странных обстоятельствах. Симпатия, любовь... впереди, казалось, счастливая жизнь. И вдруг - катастрофа. Первая мировая война уводит его на фронт, а ее - медсестрой в госпиталь. Мир перевернулся, он охвачен ненавистью, злобой, жаждой власти. Одна война сменяет другую. Люди делятся на два враждующих лагеря, начинают судить друг друга, чинить жестокую расправу. Огонь времени губит все на своем пути, но любовь - бессмертна, она соединяет несколько поколений и напоминает о себе спустя сто лет.-Качество исходника: WEB-DL 1080p (HDClub)
    Качество: WEB-DL
    Тип: 1080p
    Контейнер: m4v
    Видео: 1920x806 at 25.000 fps, MPEG-4 AVC, ~4500 kbps avg
    Аудио#1: Russian: 48 kHz, ААС, 2/0 (L,R), ~160.00 kbps avg |iTunes Russia|
    Аудио#2: Russian: 48 kHz, AC3, 3/2 (L,C,R,l,r) + LFE ch, ~384.00 kbps avg|iTunes Russia|-

    Знаете ли Вы, что...

    • Дима Билан настраивался играть сцену расстрела, слушая песню «Supremacy» группы Muse.

    -

    iTunes Meta Tags for country ru

    Name: Герой
    Artist: Юрий Васильев
    Genre: Drama
    Release Date: 2016-01-01T08:00:00Z
    Description: Начало ХХ века. Юная княжна Вера Чернышева и поручик Андрей Долматов знакомятся при весьма странных обстоятельствах. Симпатия, любовь... и вдруг - катастрофа... но любовь - бессмертна, она соединяет несколько поколений и напоминает о себе спустя сто лет.
    Long Description: Начало ХХ века. Юная княжна Вера Чернышева и поручик Андрей Долматов знакомятся при весьма странных обстоятельствах. Симпатия, любовь... впереди, казалось, счастливая жизнь. И вдруг - катастрофа. Первая мировая война уводит его на фронт, а ее - медсестрой в госпиталь. Мир перевернулся, он охвачен ненавистью, злобой, жаждой власти. Одна война сменяет другую. Люди делятся на два враждующих лагеря, начинают судить друг друга, чинить жестокую расправу. Огонь времени губит все на своем пути, но любовь - бессмертна, она соединяет несколько поколений и напоминает о себе спустя сто лет.
    Rating: 12+
    Studio: Фонд кино
    Cast: Дима Билан, Светлана Иванова, Александр Балуев, Татьяна Лютаева, Юлия Пересильд, Александр Головин, Марат Башаров, Александр Адабашьян, Лилита Озолиня, Александр Васильев
    Director: Юрий Васильев
    Producers: Эльмира Айнулова, Наталия Дорошкевич, Мария Журомская
    Screenwriters: Ольга Погодина-Кузмина, Наталия Дорошкевич
    Copyright: © 2016 Планета Информ
    contentID: 1101400517
    XID: Apple:vendor_id:2016-838952
    Sort Name: Герой

    MediaInfo 1080p Release

    General
    Complete name : Герой (1080p HD).m4v
    Format : MPEG-4
    Codec ID : M4V  (M4V /M4A /mp42/isom)
    File size : 2.68 GiB
    Duration : 1h 16mn
    Overall bit rate mode : Variable
    Overall bit rate : 5 038 Kbps
    Movie name : Герой
    Performer : Юрий Васильев
    Director : Юрий Васильев
    Actor : Дима Билан / Светлана Иванова / Александр Балуев / Татьяна Лютаева / Юлия Пересильд / Александр Головин / Марат Башаров / Александр Адабашьян / Лилита Озолиня / Александр Васильев
    Screenplay by : Ольга Погодина-Кузмина / Наталия Дорошкевич
    Producer : Эльмира Айнулова / Наталия Дорошкевич / Мария Журомская
    Production studio : Фонд кино
    Genre : Drama
    ContentType : Short Film
    Description : Начало ХХ века. Юная княжна Вера Чернышева и поручик Андрей Долматов знакомятся при весьма странных обстоятельствах. Симпатия, любовь... и вдруг - катастрофа... но любовь - бессмертна, она соединяет несколько поколений и напоминает о себе спустя сто лет.
    Recorded date : UTC 2016-01-01 08:00:00
    Encoded date : UTC 2016-05-05 20:15:32
    Tagged date : UTC 2016-05-05 20:18:02
    Copyright : © 2016 Планета Информ
    Cover : Yes
    Rating : None
    Title/Sort : Герой
    LongDescription : Начало ХХ века. Юная княжна Вера Чернышева и поручик Андрей Долматов знакомятся при весьма странных обстоятельствах. Симпатия, любовь... впереди, казалось, счастливая жизнь. И вдруг - катастрофа. Первая мировая война уводит его на фронт, а ее - медсестрой в госпиталь. Мир перевернулся, он охвачен ненавистью, злобой, жаждой власти. Одна война сменяет другую. Люди делятся на два враждующих лагеря, начинают судить друг друга, чинить жестокую расправу. Огонь времени губит все на своем пути, но любовь - бессмертна, она соединяет несколько поколений и напоминает о себе спустя сто лет.
    AppleStoreCatalogID : 1101400517
    Vendor : Apple:vendor_id:2016-838952
    ContentRating : ru-movie|12+|200|
    Video #1
    ID : 1
    Format : AVC
    Format/Info : Advanced Video Codec
    Format profile : High@L4
    Format settings, CABAC : Yes
    Format settings, ReFrames : 5 frames
    Codec ID : avc1
    Codec ID/Info : Advanced Video Coding
    Duration : 1h 16mn
    Bit rate : 4 480 Kbps
    Width : 1 920 pixels
    Height : 806 pixels
    Display aspect ratio : 2.40:1
    Frame rate mode : Constant
    Frame rate : 25.000 fps
    Color space : YUV
    Chroma subsampling : 4:2:0
    Bit depth : 8 bits
    Scan type : Progressive
    Bits/(Pixel*Frame) : 0.116
    Stream size : 2.38 GiB (89%)
    Title : Main Program
    Language : Russian
    Encoded date : UTC 2016-05-05 20:15:32
    Tagged date : UTC 2016-05-05 20:17:10
    Color range : Limited
    Color primaries : BT.709
    Transfer characteristics : BT.709
    Matrix coefficients : BT.709
    Menus : 4,5
    Video #2
    ID : 5
    Format : JPEG
    Codec ID : jpeg
    Duration : 1h 16mn
    Bit rate mode : Variable
    Bit rate : 878 bps
    Width : 640 pixels
    Height : 268 pixels
    Display aspect ratio : 2.40:1
    Frame rate mode : Variable
    Frame rate : 0.003 fps
    Minimum frame rate : 0.002 fps
    Maximum frame rate : 0.003 fps
    Color space : YUV
    Chroma subsampling : 4:2:0
    Bit depth : 8 bits
    Compression mode : Lossy
    Bits/(Pixel*Frame) : 1.706
    Stream size : 429 KiB (0%)
    Title : Chapter Images
    Language : Russian
    Default : No
    Encoded date : UTC 2016-05-05 20:17:14
    Tagged date : UTC 2016-05-05 20:17:15
    Menu For : 1
    Audio #1
    ID : 2
    Format : AAC
    Format/Info : Advanced Audio Codec
    Format profile : LC
    Codec ID : 40
    Duration : 1h 16mn
    Bit rate mode : Variable
    Bit rate : 165 Kbps
    Maximum bit rate : 242 Kbps
    Channel(s) : 2 channels
    Channel positions : Front: L R
    Sampling rate : 48.0 KHz
    Frame rate : 46.875 fps (1024 spf)
    Compression mode : Lossy
    Stream size : 89.6 MiB (3%)
    Title : Russian from iTunes Stereo
    Language : Russian
    Default : Yes
    Alternate group : 1
    Encoded date : UTC 2016-05-05 20:15:32
    Tagged date : UTC 2016-05-05 20:15:42
    Fallback From : 3
    Menus : 4
    Audio #2
    ID : 3
    Format : AC-3
    Format/Info : Audio Coding 3
    Mode extension : CM (complete main)
    Format settings, Endianness : Big
    Codec ID : ac-3
    Duration : 1h 16mn
    Bit rate mode : Constant
    Bit rate : 384 Kbps
    Channel(s) : 6 channels
    Channel positions : Front: L C R, Side: L R, LFE
    Sampling rate : 48.0 KHz
    Frame rate : 31.250 fps (1536 spf)
    Bit depth : 16 bits
    Compression mode : Lossy
    Stream size : 209 MiB (8%)
    Title : Russian from iTunes DD 5.1
    Language : Russian
    Default : Inherited From: 2
    Alternate group : 1
    Encoded date : UTC 2016-05-05 20:15:32
    Tagged date : UTC 2016-05-05 20:17:10
    Fallback To : 2
    Menu #1
    00:00:00.000 : 1
    00:05:28.760 : 2
    00:10:43.560 : 3
    00:17:46.440 : 4
    00:23:05.239 : 5
    00:29:18.200 : 6
    00:35:00.120 : 7
    00:40:56.840 : 8
    00:48:50.040 : 9
    00:54:15.520 : 10
    00:59:42.800 : 11
    01:06:23.600 : 12
    Menu #2
    ID : 4
    Codec ID : text
    Duration : 1h 16mn
    Title : Chapter Titles
    Language : Russian
    Encoded date : UTC 2016-05-05 20:17:10
    Tagged date : UTC 2016-05-05 20:17:10
    Menu For : 2,1
    00:00:00.000 : 1
    00:05:28.760 : 2
    00:10:43.560 : 3
    00:17:46.440 : 4
    00:23:05.239 : 5
    00:29:18.200 : 6
    00:35:00.120 : 7
    00:40:56.840 : 8
    00:48:50.040 : 9
    00:54:15.520 : 10
    00:59:42.800 : 11
    01:06:23.600 : 12
    Bit rate mode : VBR

    Скриншоты 1080p Release

    -

    Релиз подготовлен для просмотра на Apple TV, iPad, iPhone, iPod Touch.
    Для просмотра данного релиза на компьютере с ОС Windows рекомендуется использовать VLC media player
    Скачать .torrent

    Скачать торрент-файл бесплатно и на максимальной скорости!

    Как скачивать? · Что такое торрент? · Рейтинг и ограничения

    !ВНИМАНИЕ!
    Сайт не распространяет и не хранит электронные версии произведений, а занимается лишь лишь предоставлением доступа к создаваемому пользователями каталогу ссылок на торрент-файлы, которые содержат только списки хеш-сумм, убедительная просьба с жалобами обращаться напрямую к пользователю. Файлы для обмена на трекере предоставлены пользователями сайта, и администрация не несёт ответственности за их содержание. Просьба не заливать файлы, защищенные авторскими правами, а также файлы нелегального содержания!


    _________________
    [Профиль] [ЛС]
    Показать сообщения:    
    Ответить на тему

    Текущее время: Сегодня, в 22:19

    Часовой пояс: GMT + 2



    Вы не можете начинать темы
    Вы не можете отвечать на сообщения
    Вы не можете редактировать свои сообщения
    Вы не можете удалять свои сообщения
    Вы не можете голосовать в опросах
    Вы не можете прикреплять файлы к сообщениям
    Вы не можете скачивать файлы