BitTorrentTracker PerecTracker.org
BitTorrentTracker PerecTracker.org
    
Регистрация  ·  Вход
 
 · 
Забыли пароль?

  • Я есть гнев / I Am Wrath (Чак Расселл / Chuck Russell) [2016, США, Боевик, триллер, драма, криминал, BDRip] DVO

    Ответить на тему
     
    Автор Сообщение

    rechyn

    Создавать темы 06-Май-2016 01:36

           

    [Цитировать]

    Я есть гнев / I Am Wrath-Год выхода: 2016
    Выпущено: США / Patriot Pictures LLC
    Жанр: боевик, триллер, драма, криминал
    Продолжительность: 01:30:34
    Перевод: Любительский (двухголосый закадровый)
    Субтитры: нет-Режиссер:
    Чак Расселл / Chuck Russell-В ролях:
    Джон Траволта (Stanley Hill), Аманда Шулл (Abbie), Ребекка Де Морнэй (Vivian Hill), Кристофер Мелони (Dennis), Дорис Моргадо (Rosa), Сэм Трэммелл (Det. Gibson), Луис Да Силва мл. (Charley), Патрик Ст. Эсприт (Governor Meserve), Пол Слоун (Lemi K), Дэвид Хатчинсон (Crew #1)-О фильме:
    История человека, чью жену убили и который, отчаявшись дождаться каких-то действий со стороны полиции, решает сам найти преступника и покарать его.-Релиз групп
    | | IMDB | КиноПоиск | Сэмпл |-Качество: BDRip [I Am Wrath 2016 1080p FRA Blu-ray AVC DTS-HD MA 5.1-TRUEDEF]
    Формат: AVI
    Видео: 720x304 (2.37:1), 23.976 fps, XviD build 67 ~2136 kbps avg, 0.41 bit/pixel
    Аудио: 48 kHz, AC3 Dolby Digital, 2/0 (L,R) ch, ~192 kbps avg--

    Скриншоты

    -

    MediaInfo

    General
    Complete name                            : D:\Ya_est`_Gnev_2016_BDRip_DVO_by_Dalemake.avi
    Format                                   : AVI
    Format/Info                              : Audio Video Interleave
    File size                                : 1.48 GiB
    Duration                                 : 1h 30mn
    Overall bit rate                         : 2 338 Kbps
    Writing application                      : VirtualDubMod 1.5.10.3 | www.virtualdub-fr.org || (build 2550/release)
    Writing library                          : VirtualDubMod build 2550/release
    Video
    ID                                       : 0
    Format                                   : MPEG-4 Visual
    Format profile                           : Advanced Simple@L5
    Format settings, BVOP                    : 1
    Format settings, QPel                    : No
    Format settings, GMC                     : No warppoints
    Format settings, Matrix                  : Custom
    Codec ID                                 : XVID
    Codec ID/Hint                            : XviD
    Duration                                 : 1h 30mn
    Bit rate                                 : 2 136 Kbps
    Width                                    : 720 pixels
    Height                                   : 304 pixels
    Display aspect ratio                     : 2.35:1
    Frame rate                               : 23.976 (23976/1000) fps
    Color space                              : YUV
    Chroma subsampling                       : 4:2:0
    Bit depth                                : 8 bits
    Scan type                                : Progressive
    Compression mode                         : Lossy
    Bits/(Pixel*Frame)                       : 0.407
    Stream size                              : 1.35 GiB (91%)
    Writing library                          : XviD 67
    Audio
    ID                                       : 1
    Format                                   : AC-3
    Format/Info                              : Audio Coding 3
    Mode extension                           : CM (complete main)
    Format settings, Endianness              : Big
    Codec ID                                 : 2000
    Duration                                 : 1h 30mn
    Bit rate mode                            : Constant
    Bit rate                                 : 192 Kbps
    Channel(s)                               : 2 channels
    Channel positions                        : Front: L R
    Sampling rate                            : 48.0 KHz
    Frame rate                               : 31.250 fps (1536 spf)
    Compression mode                         : Lossy
    Stream size                              : 124 MiB (8%)
    Alignment                                : Split accross interleaves
    Interleave, duration                     : 42 ms (1.00 video frame)
    Interleave, preload duration             : 500 ms
    -
    Скачать .torrent

    Скачать торрент-файл бесплатно и на максимальной скорости!

    Как скачивать? · Что такое торрент? · Рейтинг и ограничения

    !ВНИМАНИЕ!
    Сайт не распространяет и не хранит электронные версии произведений, а занимается лишь лишь предоставлением доступа к создаваемому пользователями каталогу ссылок на торрент-файлы, которые содержат только списки хеш-сумм, убедительная просьба с жалобами обращаться напрямую к пользователю. Файлы для обмена на трекере предоставлены пользователями сайта, и администрация не несёт ответственности за их содержание. Просьба не заливать файлы, защищенные авторскими правами, а также файлы нелегального содержания!


    _________________
    [Профиль] [ЛС]
    Показать сообщения:    
    Ответить на тему

    Текущее время: Сегодня, в 15:51

    Часовой пояс: GMT + 2



    Вы не можете начинать темы
    Вы не можете отвечать на сообщения
    Вы не можете редактировать свои сообщения
    Вы не можете удалять свои сообщения
    Вы не можете голосовать в опросах
    Вы не можете прикреплять файлы к сообщениям
    Вы не можете скачивать файлы