BitTorrentTracker PerecTracker.org
BitTorrentTracker PerecTracker.org
    
Регистрация  ·  Вход
 
 · 
Забыли пароль?

  • Зверополис / Zootopia (Байрон Ховард, Рич Мур, Джаред Буш / Byron Howard, Rich Moore, Jared Bush) [2016, США, мультфильм, боевик, комедия, приключения, семейный, TeleCine] Dub (line) + Sub (Chi)

    Ответить на тему
     
    Автор Сообщение

    Flirldrerve

    Создавать темы 05-Май-2016 21:31

           

    [Цитировать]

    Зверополис / Zootopia
    «Welcome to the urban jungle»

    Название: Зверополис
    Оригинальное название: Zootopia
    Производство: США / Walt Disney Pictures, Walt Disney Animation Studios
    Жанр: мультфильм, боевик, комедия, криминал, приключения, семейный--Год выпуска: 2016
    Перевод: Профессиональный (полное дублирование) | line |
    Продолжительность: 01:47:14--Режиссёр: Байрон Ховард / Byron Howard, Рич Мур / Rich Moore, Джаред Буш / Jared Bush
    Роли озвучивали: Джиннифер Гудвин (Judy Hopps, озвучка), Джейсон Бейтман (Nick Wilde, озвучка), Идрис Эльба (Chief Bogo, озвучка), Дженни Слейт (Bellwether, озвучка), Нейт Торренс (Clawhauser, озвучка), Бонни Хант (Bonnie Hopps, озвучка), Дон Лейк (Stu Hopps, озвучка), Томми Чонг (Yax, озвучка), Дж.К. Симмонс (Mayor Lionheart, озвучка), Октавия Спенсер (Mrs. Otterton, озвучка), Алан Тьюдик (Duke Weaselton, озвучка), Шакира (Gazelle, озвучка)--Описание: Добро пожаловать в Зверополис - современный город, населенный самыми разными животными, от огромных слонов до крошечных мышек. Зверополис разделен на районы, полностью повторяющие естественную среду обитания разных жителей - здесь есть и элитный район Площадь Сахары и неприветливый Тундратаун. В этом городе появляется новый офицер полиции, жизнерадостная зайчиха Джуди Хоппс, которая с первых дней работы понимает, как сложно быть маленькой и пушистой среди больших и сильных полицейских. Джуди хватается за первую же возможность проявить себя, несмотря на то, что ее партнером будет болтливый хитрый лис Ник Уайлд. Вдвоем им предстоит раскрыть сложное дело, от которого будет зависеть судьба всех обитателей Зверополиса.--
    Доп. информация: Местами присутствует китайские субтитры!
    Реклама: Отсутствует--Качество: Telecine | исх. Telecine.720p | | Сэмпл |
    Формат: AVI
    Видео: 720x304 (2.37:1), 23.976 fps, XviD build 73 ~1750 kbps avg, 0.33 bit/pixel
    Аудио: 48 kHz, AC3 Dolby Digital, 2/0 (L,R) ch, ~192 kbps [DUB]--Субтитры: Китайские

    MI

    Общее
    Полное имя                               : Zveropolis.2016.D.TC.1.46Gb.MGT.avi
    Формат                                   : AVI
    Формат/Информация                        : Audio Video Interleave
    Размер файла                             : 1,46 Гбайт
    Продолжительность                        : 1 ч. 47 м.
    Общий поток                              : 1951 Кбит/сек
    Название фильма                          : Zveropolis.2016.D.TC.1.46Gb.MGT.avi
    Формат оригинала/Имя                     : Cartoon
    Видео
    Идентификатор                            : 0
    Формат                                   : MPEG-4 Visual
    Профиль формата                          : Advanced Simple@L5
    Параметр BVOP формата                    : 2
    Параметр QPel формата                    : Нет
    Параметр GMC формата                     : Без точки перехода
    Параметр матрицы формата                 : Выборочная
    Идентификатор кодека                     : XVID
    Идентификатор кодека/Подсказка           : XviD
    Продолжительность                        : 1 ч. 47 м.
    Битрейт                                  : 1750 Кбит/сек
    Ширина                                   : 720 пикселей
    Высота                                   : 304 пикселя
    Соотношение сторон                       : 2,35:1
    Частота кадров                           : 23,976 (24000/1001) кадра/сек
    Цветовое пространство                    : YUV
    Субдискретизация насыщенности            : 4:2:0
    Битовая глубина                          : 8 бит
    Тип развёртки                            : Прогрессивная
    Метод сжатия                             : С потерями
    Бит/(Пиксели*Кадры)                      : 0.333
    Размер потока                            : 1,31 Гбайт (90%)
    Библиотека кодирования                   : XviD 73
    Аудио
    Идентификатор                            : 1
    Формат                                   : AC-3
    Формат/Информация                        : Audio Coding 3
    Расширение режима                        : CM (complete main)
    Параметр Endianness формата              : Big
    Идентификатор кодека                     : 2000
    Продолжительность                        : 1 ч. 47 м.
    Вид битрейта                             : Постоянный
    Битрейт                                  : 192 Кбит/сек
    Каналы                                   : 2 канала
    Расположение каналов                     : Front: L R
    Частота                                  : 48,0 КГц
    Частота кадров                           : 31,250 кадров/сек (1536 spf)
    Метод сжатия                             : С потерями
    Размер потока                            : 147 Мбайт (10%)
    Выравнивание                             : Соединение по промежуткам
    Продолжительность промежутка             : 42  мс. (1,00 видеокадр)
    Время предзагрузки промежутка            : 512  мс.

    Скриншоты

    Скачать .torrent

    Скачать торрент-файл бесплатно и на максимальной скорости!

    Как скачивать? · Что такое торрент? · Рейтинг и ограничения

    !ВНИМАНИЕ!
    Сайт не распространяет и не хранит электронные версии произведений, а занимается лишь лишь предоставлением доступа к создаваемому пользователями каталогу ссылок на торрент-файлы, которые содержат только списки хеш-сумм, убедительная просьба с жалобами обращаться напрямую к пользователю. Файлы для обмена на трекере предоставлены пользователями сайта, и администрация не несёт ответственности за их содержание. Просьба не заливать файлы, защищенные авторскими правами, а также файлы нелегального содержания!


    _________________
    [Профиль] [ЛС]
    Показать сообщения:    
    Ответить на тему

    Текущее время: Сегодня, в 02:30

    Часовой пояс: GMT + 2



    Вы не можете начинать темы
    Вы не можете отвечать на сообщения
    Вы не можете редактировать свои сообщения
    Вы не можете удалять свои сообщения
    Вы не можете голосовать в опросах
    Вы не можете прикреплять файлы к сообщениям
    Вы не можете скачивать файлы