BitTorrentTracker PerecTracker.org
BitTorrentTracker PerecTracker.org
    
Регистрация  ·  Вход
 
 · 
Забыли пароль?

  • Дом с паранормальными явлениями 2 / A Haunted House 2 (Майкл Тиддес / Michael Tiddes) [2014, США, ужасы, комедия, BDRip-AVC] Dub + Original (eng) + Sub (eng)

    Ответить на тему
     
    Автор Сообщение

    Light

    Создавать темы 05-Май-2016 21:31

           

    [Цитировать]

    Дом с паранормальными явлениями 2
    A Haunted House 2
    «Нагнали страху аж до сиквела»

    Страна: США
    Жанр: ужасы, комедия
    Год выпуска: 2014
    Продолжительность: 01:26:53
    Перевод: Профессиональный (полное дублирование) [Лицензия iTunes]
    Cубтитры: английские (полные, SDH, SDH цветные)
    Оригинальная аудиодорожка: английский
    Режиссер: Майкл Тиддес / Michael Tiddes
    В ролях: Марлон Уайанс, Джейми Прессли, Эссенс Эткинс, Габриэль Иглесиас, Мисси Пайл, Эшли Рикардс, Эффион Крокетт, Стил Стеббинс, Рик Овертон, Хэйз МакАртур, Дейв Шеридан, Седрик «Развлекатель»
    Описание:
    Малькольм, изгнавший демонов из своей бывшей подружки, начинает новую жизнь с другой девушкой и ее двумя детьми. После переезда в дом своей мечты, с Малькольмом снова начинают случаться загадочные происшествия. И, похоже, паранормальные явления теперь преследуют его не только в собственном доме...
    Автор рипа: Stalker oK
    Сэмпл
    Качество видео: BDRip-AVC [kinozal / Blu-ray Remux / 1080p]
    Формат видео: MKV
    Видео кодек: AVC
    Аудио кодек: AC3
    Видео: 2699 Кбит/сек, 1084*586 (1,85:1), в 23,976 (24000/1001) кадра/сек, AVC
    Аудио #1: русский, 384 Кбит/сек, 48 КГц, 16 бит, 5.1, AC3
    Аудио #2: английский, 448 Кбит/сек, 48 КГц, 16 бит, 5.1, AC3
    Навигация по главам: есть

    MediaInfo

    Общее
    Уникальный идентификатор : 230704194753399120320128811528818882523 (0xAD9002FE954DAD868B199FA1993977DB)
    Полное имя : M:\Rips\A Haunted House 2\A.Haunted.House.2.2014.BDRip-AVC.Dub.2.18Gb.stalkerok.new-team.mkv
    Формат : Matroska
    Версия формата : Version 4 / Version 2
    Размер файла : 2,14 Гбайт
    Продолжительность : 1 ч. 26 м.
    Общий поток : 3526 Кбит/сек
    Название фильма : A Haunted House 2 (2014) (New-Team) (Rip by Stalker oK)
    Дата кодирования : UTC 2016-05-05 09:17:41
    Программа кодирования : mkvmerge v8.6.1 ('Flying') 64bit
    Библиотека кодирования : libebml v1.3.3 + libmatroska v1.4.4
    Видео
    Идентификатор : 1
    Формат : AVC
    Формат/Информация : Advanced Video Codec
    Профиль формата : High@L4.1
    Параметр CABAC формата : Да
    Параметр ReFrames формата : 13 кадров
    Идентификатор кодека : V_MPEG4/ISO/AVC
    Продолжительность : 1 ч. 26 м.
    Битрейт : 2699 Кбит/сек
    Ширина : 1084 пикселя
    Высота : 586 пикселей
    Соотношение сторон : 1,85:1
    Режим частоты кадров : Постоянный
    Частота кадров : 23,976 (24000/1001) кадра/сек
    Цветовое пространство : YUV
    Субдискретизация насыщенности : 4:2:0
    Битовая глубина : 8 бит
    Тип развёртки : Прогрессивная
    Бит/(Пиксели*Кадры) : 0.177
    Размер потока : 1,63 Гбайт (76%)
    Заголовок : A Haunted House 2 (2014) (New-Team) (Rip by Stalker oK)
    Библиотека кодирования : x264 core 148 r2665kMod a01e339
    Настройки программы : cabac=1 / ref=13 / deblock=1:-3:-2 / analyse=0x3:0x133 / me=umh / subme=11 / psy=1 / fade_compensate=0.00 / psy_rd=1.00:0.05 / mixed_ref=1 / me_range=48 / chroma_me=1 / trellis=2 / 8x8dct=1 / cqm=0 / deadzone=21,11 / fast_pskip=0 / chroma_qp_offset=-3 / threads=12 / lookahead_threads=3 / sliced_threads=0 / nr=0 / decimate=0 / interlaced=0 / bluray_compat=0 / constrained_intra=0 / fgo=0 / bframes=14 / b_pyramid=2 / b_adapt=2 / b_bias=0 / direct=3 / weightb=1 / open_gop=0 / weightp=2 / keyint=240 / keyint_min=23 / scenecut=40 / intra_refresh=0 / rc_lookahead=60 / rc=2pass / mbtree=0 / bitrate=2699 / ratetol=1.0 / qcomp=0.70 / qpmin=0 / qpmax=69 / qpstep=4 / cplxblur=20.0 / qblur=0.5 / vbv_maxrate=50000 / vbv_bufsize=62500 / nal_hrd=none / filler=0 / ip_ratio=1.40 / pb_ratio=1.30 / aq=3:0.90
    Default : Да
    Forced : Нет
    Аудио #1
    Идентификатор : 2
    Формат : AC-3
    Формат/Информация : Audio Coding 3
    Расширение режима : CM (complete main)
    Параметр Endianness формата : Big
    Идентификатор кодека : A_AC3
    Продолжительность : 1 ч. 26 м.
    Вид битрейта : Постоянный
    Битрейт : 384 Кбит/сек
    Каналы : 6 каналов
    Расположение каналов : Front: L C R, Side: L R, LFE
    Частота : 48,0 КГц
    Частота кадров : 31,250 кадров/сек (1536 spf)
    Метод сжатия : С потерями
    Размер потока : 238 Мбайт (11%)
    Язык : Russian
    Default : Да
    Forced : Нет
    Аудио #2
    Идентификатор : 3
    Формат : AC-3
    Формат/Информация : Audio Coding 3
    Расширение режима : CM (complete main)
    Параметр Endianness формата : Big
    Идентификатор кодека : A_AC3
    Продолжительность : 1 ч. 26 м.
    Вид битрейта : Постоянный
    Битрейт : 448 Кбит/сек
    Каналы : 6 каналов
    Расположение каналов : Front: L C R, Side: L R, LFE
    Частота : 48,0 КГц
    Частота кадров : 31,250 кадров/сек (1536 spf)
    Метод сжатия : С потерями
    Размер потока : 278 Мбайт (13%)
    Язык : English
    Default : Нет
    Forced : Нет
    Текст #1
    Идентификатор : 4
    Формат : UTF-8
    Идентификатор кодека : S_TEXT/UTF8
    Идентификатор кодека/Информация : UTF-8 Plain Text
    Продолжительность : 1 ч. 19 м.
    Битрейт : 97 бит/сек
    Count of elements : 1606
    Размер потока : 56,8 Кбайт (0%)
    Заголовок : Full
    Язык : English
    Default : Нет
    Forced : Нет
    Текст #2
    Идентификатор : 5
    Формат : UTF-8
    Идентификатор кодека : S_TEXT/UTF8
    Идентификатор кодека/Информация : UTF-8 Plain Text
    Продолжительность : 1 ч. 19 м.
    Битрейт : 106 бит/сек
    Count of elements : 1790
    Размер потока : 61,6 Кбайт (0%)
    Заголовок : SDH
    Язык : English
    Default : Нет
    Forced : Нет
    Текст #3
    Идентификатор : 6
    Формат : UTF-8
    Идентификатор кодека : S_TEXT/UTF8
    Идентификатор кодека/Информация : UTF-8 Plain Text
    Продолжительность : 1 ч. 19 м.
    Битрейт : 127 бит/сек
    Count of elements : 1790
    Размер потока : 73,9 Кбайт (0%)
    Заголовок : SDH-Colored
    Язык : English
    Default : Нет
    Forced : Нет
    Меню
    00:00:00.000 : en:Chapter 01
    00:03:38.176 : en:Chapter 02
    00:07:40.084 : en:Chapter 03
    00:12:18.487 : en:Chapter 04
    00:17:27.838 : en:Chapter 05
    00:23:32.661 : en:Chapter 06
    00:29:36.399 : en:Chapter 07
    00:33:52.989 : en:Chapter 08
    00:37:33.542 : en:Chapter 09
    00:40:22.002 : en:Chapter 10
    00:43:05.833 : en:Chapter 11
    00:47:35.602 : en:Chapter 12
    00:50:14.261 : en:Chapter 13
    00:55:32.120 : en:Chapter 14
    01:00:16.821 : en:Chapter 15
    01:04:35.746 : en:Chapter 16
    01:08:17.718 : en:Chapter 17
    01:12:14.371 : en:Chapter 18
    01:15:57.261 : en:Chapter 19
    01:20:03.548 : en:Chapter 20
    01:26:53.333 : en:Chapter 21

    Скриншоты

    Скачать .torrent

    Скачать торрент-файл бесплатно и на максимальной скорости!

    Как скачивать? · Что такое торрент? · Рейтинг и ограничения

    !ВНИМАНИЕ!
    Сайт не распространяет и не хранит электронные версии произведений, а занимается лишь лишь предоставлением доступа к создаваемому пользователями каталогу ссылок на торрент-файлы, которые содержат только списки хеш-сумм, убедительная просьба с жалобами обращаться напрямую к пользователю. Файлы для обмена на трекере предоставлены пользователями сайта, и администрация не несёт ответственности за их содержание. Просьба не заливать файлы, защищенные авторскими правами, а также файлы нелегального содержания!


    _________________
    [Профиль] [ЛС]
    Показать сообщения:    
    Ответить на тему

    Текущее время: Сегодня, в 17:29

    Часовой пояс: GMT + 2



    Вы не можете начинать темы
    Вы не можете отвечать на сообщения
    Вы не можете редактировать свои сообщения
    Вы не можете удалять свои сообщения
    Вы не можете голосовать в опросах
    Вы не можете прикреплять файлы к сообщениям
    Вы не можете скачивать файлы