BitTorrentTracker PerecTracker.org
BitTorrentTracker PerecTracker.org
    
Регистрация  ·  Вход
 
 · 
Забыли пароль?

  • Эшби / Ashby (Тони МакНамара / Tony McNamara) [2015, США, драма, мелодрама, комедия, BDRip-AVC] Dub + Sub (eng)

    Ответить на тему
     
    Автор Сообщение

    Light

    Создавать темы 05-Май-2016 21:31

           

    [Цитировать]

    Эшби
    Ashby
    «Просто киллер»

    Страна: США
    Жанр: драма, мелодрама, комедия, криминал
    Год выпуска: 2015
    Продолжительность: 01:43:00
    Перевод: Профессиональный (полное дублирование) [Лицензия iTunes]
    Cубтитры: английские (полные, SDH)
    Оригинальная аудиодорожка: нет
    Режиссер: Тони МакНамара / Tony McNamara
    В ролях: Микки Рурк, Нат Вулф, Эмма Робертс, Сара Силверман, Кевин Данн, Захари Найтон, Майкл Лернер, Джон Инос III, Стив Култер, Том Ноуики, Адам Алдеркс, Сет Даусмен
    Описание:
    Переехав в другой город, Эд начинает дружить со своим новым соседом Эшби - бывшим киллером ЦРУ, которому осталось жить всего несколько месяцев...
    Автор рипа: Stalker oK
    Сэмпл
    Качество видео: BDRip-AVC [RARBG / Blu-ray Remux / 1080p]
    Формат видео: MKV
    Видео кодек: AVC
    Аудио кодек: AC3
    Видео: 1577 Кбит/сек, 1020x426 (2.40:1), 23,976 кадр/сек, AVC
    Аудио: русский, 384 Кбит/сек, 48 КГц, 16 бит, 5.1, AC3
    Навигация по главам: есть

    MediaInfo

    Общее
    Уникальный идентификатор : 240604034685274720212435537617332104480 (0xB502A6C9A05F75D78A395D7422366D20)
    Полное имя : M:\Rips\Ashby\Ashby.2015.BDRip-AVC.Dub.1.45Gb.stalkerok.new-team.mkv
    Формат : Matroska
    Версия формата : Version 4 / Version 2
    Размер файла : 1,41 Гбайт
    Продолжительность : 1 ч. 43 м.
    Общий поток : 1960 Кбит/сек
    Название фильма : Ashby (2015) (New-Team) (Rip by Stalker oK)
    Дата кодирования : UTC 2016-05-05 13:51:03
    Программа кодирования : mkvmerge v8.6.1 ('Flying') 64bit
    Библиотека кодирования : libebml v1.3.3 + libmatroska v1.4.4
    Видео
    Идентификатор : 1
    Формат : AVC
    Формат/Информация : Advanced Video Codec
    Профиль формата : High@L4.1
    Параметр CABAC формата : Да
    Параметр ReFrames формата : 13 кадров
    Идентификатор кодека : V_MPEG4/ISO/AVC
    Продолжительность : 1 ч. 43 м.
    Битрейт : 1577 Кбит/сек
    Ширина : 1020 пикселей
    Высота : 426 пикселей
    Соотношение сторон : 2,40:1
    Режим частоты кадров : Постоянный
    Частота кадров : 23,976 (24000/1001) кадра/сек
    Цветовое пространство : YUV
    Субдискретизация насыщенности : 4:2:0
    Битовая глубина : 8 бит
    Тип развёртки : Прогрессивная
    Бит/(Пиксели*Кадры) : 0.151
    Размер потока : 1,13 Гбайт (80%)
    Заголовок : Ashby (2015) (New-Team) (Rip by Stalker oK)
    Библиотека кодирования : x264 core 148 r2665kMod a01e339
    Настройки программы : cabac=1 / ref=13 / deblock=1:-3:-2 / analyse=0x3:0x133 / me=umh / subme=11 / psy=1 / fade_compensate=0.00 / psy_rd=1.00:0.05 / mixed_ref=1 / me_range=48 / chroma_me=1 / trellis=2 / 8x8dct=1 / cqm=0 / deadzone=21,11 / fast_pskip=0 / chroma_qp_offset=-3 / threads=12 / lookahead_threads=3 / sliced_threads=0 / nr=0 / decimate=0 / interlaced=0 / bluray_compat=0 / constrained_intra=0 / fgo=0 / bframes=14 / b_pyramid=2 / b_adapt=2 / b_bias=0 / direct=3 / weightb=1 / open_gop=0 / weightp=2 / keyint=240 / keyint_min=23 / scenecut=40 / intra_refresh=0 / rc_lookahead=60 / rc=2pass / mbtree=0 / bitrate=1577 / ratetol=1.0 / qcomp=0.70 / qpmin=0 / qpmax=69 / qpstep=4 / cplxblur=20.0 / qblur=0.5 / vbv_maxrate=50000 / vbv_bufsize=62500 / nal_hrd=none / filler=0 / ip_ratio=1.40 / pb_ratio=1.30 / aq=3:0.85
    Default : Да
    Forced : Нет
    Аудио
    Идентификатор : 2
    Формат : AC-3
    Формат/Информация : Audio Coding 3
    Расширение режима : CM (complete main)
    Параметр Endianness формата : Big
    Идентификатор кодека : A_AC3
    Продолжительность : 1 ч. 42 м.
    Вид битрейта : Постоянный
    Битрейт : 384 Кбит/сек
    Каналы : 6 каналов
    Расположение каналов : Front: L C R, Side: L R, LFE
    Частота : 48,0 КГц
    Частота кадров : 31,250 кадров/сек (1536 spf)
    Метод сжатия : С потерями
    Размер потока : 283 Мбайт (20%)
    Язык : Russian
    Default : Да
    Forced : Нет
    Текст #1
    Идентификатор : 3
    Формат : UTF-8
    Идентификатор кодека : S_TEXT/UTF8
    Идентификатор кодека/Информация : UTF-8 Plain Text
    Продолжительность : 1 ч. 35 м.
    Битрейт : 59 бит/сек
    Count of elements : 1391
    Размер потока : 41,8 Кбайт (0%)
    Язык : English
    Default : Нет
    Forced : Нет
    Текст #2
    Идентификатор : 4
    Формат : UTF-8
    Идентификатор кодека : S_TEXT/UTF8
    Идентификатор кодека/Информация : UTF-8 Plain Text
    Продолжительность : 1 ч. 36 м.
    Битрейт : 71 бит/сек
    Count of elements : 1589
    Размер потока : 50,6 Кбайт (0%)
    Заголовок : SDH
    Язык : English
    Default : Нет
    Forced : Нет
    Меню
    00:00:00.000 : en:Chapter 01
    00:07:42.086 : en:Chapter 02
    00:13:14.835 : en:Chapter 03
    00:18:50.629 : en:Chapter 04
    00:25:08.423 : en:Chapter 05
    00:29:19.883 : en:Chapter 06
    00:33:39.517 : en:Chapter 07
    00:41:59.683 : en:Chapter 08
    00:51:44.810 : en:Chapter 09
    00:55:49.179 : en:Chapter 10
    01:00:12.734 : en:Chapter 11
    01:05:25.212 : en:Chapter 12
    01:11:29.868 : en:Chapter 13
    01:18:38.130 : en:Chapter 14
    01:24:38.031 : en:Chapter 15
    01:27:34.040 : en:Chapter 16
    01:30:07.485 : en:Chapter 17
    01:38:48.797 : en:Chapter 18

    Скриншоты

    Скачать .torrent

    Скачать торрент-файл бесплатно и на максимальной скорости!

    Как скачивать? · Что такое торрент? · Рейтинг и ограничения

    !ВНИМАНИЕ!
    Сайт не распространяет и не хранит электронные версии произведений, а занимается лишь лишь предоставлением доступа к создаваемому пользователями каталогу ссылок на торрент-файлы, которые содержат только списки хеш-сумм, убедительная просьба с жалобами обращаться напрямую к пользователю. Файлы для обмена на трекере предоставлены пользователями сайта, и администрация не несёт ответственности за их содержание. Просьба не заливать файлы, защищенные авторскими правами, а также файлы нелегального содержания!


    _________________
    [Профиль] [ЛС]
    Показать сообщения:    
    Ответить на тему

    Текущее время: Сегодня, в 06:01

    Часовой пояс: GMT + 2



    Вы не можете начинать темы
    Вы не можете отвечать на сообщения
    Вы не можете редактировать свои сообщения
    Вы не можете удалять свои сообщения
    Вы не можете голосовать в опросах
    Вы не можете прикреплять файлы к сообщениям
    Вы не можете скачивать файлы