Register  ·  Log in
Forgot password?

  • Ведьма / The VVitch: A New-England Folktale (Роберт Эггерс / Robert Eggers) [2015, США, Великобритания, Канада, Бразилия, Мистика, Ужасы, HDRip] MVO (Paradox & Omskbird records)

    Reply to topic
    Author Message


    Post 05-May-2016 18:26



    Ведьма / The VVitch: A New-England Folktale
    Страна: США, Великобритания, Канада, Бразилия
    Год выпуска: 2015
    Продолжительность: 01:32:26
    Перевод: Любительский (многоголосый закадровый) [Paradox & Omskbird records]
    Cубтитры: нет
    Оригинальная аудиодорожка: нет
    Режиссер: Роберт Эггерс / Robert Eggers
    В ролях: Аня Тейлор-Джой, Ралф Айнесон, Кейт Дики, Харви Скримшо, Элли Грэйнджер, Лукас Доусон
    Описание: Семья пилигримов в Новой Англии оставляет церковь и покидает плантацию. Наедине с дикой природой нового континента они сталкиваются с нечистыми силами, которые заставляют их сомневаться в выборе.
    желает всем приятного просмотра!Качество видео: HDRip / BDRip (1080p)
    Формат видео: AVI
    Видео: 720x432 (1.67:1), 23.976 fps, XviD build 65 ~1741 kbps avg, 0.23 bit/pixel
    Audio: 48 kHz, AC3 Dolby Digital, 3/2 (L,C,R,l,r) + LFE ch, ~448 kbps
    Complete name : D:\Торренты\The VVitch A New-England
    Format : AVI
    Format/Info : Audio Video Interleave
    File size : 1.42 GiB
    Duration : 1h 32mn
    Overall bit rate : 2 199 Kbps
    Writing application : VirtualDubMod (build 2540/release)
    Writing library : VirtualDubMod build 2540/release
    ID : 0
    Format : MPEG-4 Visual
    Format profile : Advanced Simple@L5
    Format settings, BVOP : 1
    Format settings, QPel : No
    Format settings, GMC : No warppoints
    Format settings, Matrix : Custom
    Codec ID : XVID
    Codec ID/Hint : XviD
    Duration : 1h 32mn
    Bit rate : 1 741 Kbps
    Width : 720 pixels
    Height : 432 pixels
    Display aspect ratio : 5:3
    Frame rate : 23.976 (24000/1001) fps
    Color space : YUV
    Chroma subsampling : 4:2:0
    Bit depth : 8 bits
    Scan type : Progressive
    Compression mode : Lossy
    Bits/(Pixel*Frame) : 0.234
    Stream size : 1.12 GiB (79%)
    Writing library : XviD 65
    ID : 1
    Format : AC-3
    Format/Info : Audio Coding 3
    Mode extension : CM (complete main)
    Format settings, Endianness : Big
    Codec ID : 2000
    Duration : 1h 32mn
    Bit rate mode : Constant
    Bit rate : 448 Kbps
    Channel(s) : 6 channels
    Channel positions : Front: L C R, Side: L R, LFE
    Sampling rate : 48.0 KHz
    Frame rate : 31.250 fps (1536 spf)
    Compression mode : Lossy
    Stream size : 296 MiB (20%)
    Alignment : Split accross interleaves
    Interleave, duration : 42 ms (1.00 video frame)
    Interleave, preload duratio : 500 ms
    Download .torrent

    Download free and at maximum speed!

    How to Download? · What is a torrent? · Ratings and Limitations

    The site does not extend and does not store electronic(digital) versions of products, and only gives access to a reference catalogue created by users on torrent-files which contain only lists of the hash-sums, the earnest entreaty, with complaints(abuse) to access directly to the user. Files for an exchange on tracker are given by users of a site, and the administration does not bear the responsibility for their maintenance. The request to not fill in the files protected by copyrights, and also files of the illegal maintenance!

    [Profile] [PM]
    Display posts from previous:    
    Reply to topic

    The time now is: Today 04:24

    All times are GMT + 3 Hours

    You cannot post new topics in this forum
    You cannot reply to topics in this forum
    You cannot edit your posts in this forum
    You cannot delete your posts in this forum
    You cannot vote in polls in this forum
    You cannot attach files in this forum
    You cannot download files in this forum