BitTorrentTracker PerecTracker.org
BitTorrentTracker PerecTracker.org
    
Регистрация  ·  Вход
 
 · 
Забыли пароль?

  • Стив Джобс / Steve Jobs (Дэнни Бойл / Danny Boyle) [2015, США, Великобритания, драма, биография, BDRip] Dub (CEE) + Sub (Rus, Eng) + Original (Eng)

    Ответить на тему
     
    Автор Сообщение

    Light

    Создавать темы 05-Май-2016 13:21

           

    [Цитировать]

    Стив Джобс / Steve Jobs
    Страна: США, Великобритания
    Жанр: драма, биография
    Годы выпуска: 2015
    Продолжительность: 02:02:21
    Перевод: Профессиональный (дублированный) CEE
    Субтитры: русские, русские форсированные, английские
    Оригинальная аудиодорожка: английский
    Режиссер: Дэнни Бойл / Danny Boyle
    В ролях: Майкл Фассбендер, Кейт Уинслет, Сет Роген, Джефф Дэниелс, Майкл Стулбарг, Кэтрин Уотерстон, Джон Ортис, Сара Снук, Адам Шапиро, Макензи Мосс, Рипли Собо, Перла Аней-Жардине
    Описание: История жизни одного из самых выдающихся умов планеты, основателя компании Apple, Стива Джобса.
    Доп. информация:
    Качество видео: BDRip | Dreamcatcher/1080p BD-Remux
    Формат видео: AVI
    Видео: 720x304 (2.37:1), 23.976 fps, XviD build 73 ~1764 kbps avg, 0.34 bit/pixel
    Аудио 1: 48 kHz, AC3 Dolby Digital, 3/2 (L,C,R,l,r) + LFE ch, ~384 kbps дубляж
    Аудио 2: 48 kHz, AC3 Dolby Digital, 3/2 (L,C,R,l,r) + LFE ch, ~384 kbps оригинал
    Формат субтитров: softsub (SRT)

    MediaInfo

    General
    Complete name : C:\Users\User\Desktop\Steve.Jobs.2015.BDRip.Dub.Eng_by_LBS.avi
    Format : AVI
    Format/Info : Audio Video Interleave
    Format profile : OpenDML
    File size : 2.18 GiB
    Duration : 2h 2mn
    Overall bit rate : 2 550 Kbps
    Director : Last Boy Scout
    Writing application : VirtualDubMod 1.5.10.3 | www.virtualdub-fr.org || (build 2550/release)
    Copyright : perectracker.org 05.05.2016
    Comment : BDRip Dub (CEE) + Original (Eng)
    Video
    ID : 0
    Format : MPEG-4 Visual
    Format profile : Advanced Simple@L5
    Format settings, BVOP : 1
    Format settings, QPel : No
    Format settings, GMC : No warppoints
    Format settings, Matrix : Custom
    Codec ID : XVID
    Codec ID/Hint : XviD
    Duration : 2h 2mn
    Bit rate : 1 764 Kbps
    Width : 720 pixels
    Height : 304 pixels
    Display aspect ratio : 2.35:1
    Frame rate : 23.976 fps
    Color space : YUV
    Chroma subsampling : 4:2:0
    Bit depth : 8 bits
    Scan type : Progressive
    Compression mode : Lossy
    Bits/(Pixel*Frame) : 0.336
    Stream size : 1.51 GiB (69%)
    Writing library : XviD 73
    Audio #1
    ID : 1
    Format : AC-3
    Format/Info : Audio Coding 3
    Mode extension : CM (complete main)
    Format settings, Endianness : Big
    Codec ID : 2000
    Duration : 2h 2mn
    Bit rate mode : Constant
    Bit rate : 384 Kbps
    Channel(s) : 6 channels
    Channel positions : Front: L C R, Side: L R, LFE
    Sampling rate : 48.0 KHz
    Bit depth : 16 bits
    Compression mode : Lossy
    Stream size : 336 MiB (15%)
    Alignment : Split accross interleaves
    Interleave, duration : 42 ms (1.00 video frame)
    Interleave, preload duration : 500 ms
    Audio #2
    ID : 2
    Format : AC-3
    Format/Info : Audio Coding 3
    Mode extension : CM (complete main)
    Format settings, Endianness : Big
    Codec ID : 2000
    Duration : 2h 2mn
    Bit rate mode : Constant
    Bit rate : 384 Kbps
    Channel(s) : 6 channels
    Channel positions : Front: L C R, Side: L R, LFE
    Sampling rate : 48.0 KHz
    Bit depth : 16 bits
    Compression mode : Lossy
    Stream size : 336 MiB (15%)
    Alignment : Split accross interleaves
    Interleave, duration : 42 ms (1.00 video frame)
    Interleave, preload duration : 500 ms

    Скриншоты

    Сравнение

    http://perectracker.org/http://perectracker.org/viewtopic.php?t=5183236
    http://screenshotcomparison.com/comparison/171824
    Плюс звук с лицензии, оригинальная дорожка, полные и форсированные субтитры
    -
    Скачать .torrent

    Скачать торрент-файл бесплатно и на максимальной скорости!

    Как скачивать? · Что такое торрент? · Рейтинг и ограничения

    !ВНИМАНИЕ!
    Сайт не распространяет и не хранит электронные версии произведений, а занимается лишь лишь предоставлением доступа к создаваемому пользователями каталогу ссылок на торрент-файлы, которые содержат только списки хеш-сумм, убедительная просьба с жалобами обращаться напрямую к пользователю. Файлы для обмена на трекере предоставлены пользователями сайта, и администрация не несёт ответственности за их содержание. Просьба не заливать файлы, защищенные авторскими правами, а также файлы нелегального содержания!


    _________________
    [Профиль] [ЛС]
    Показать сообщения:    
    Ответить на тему

    Текущее время: Сегодня, в 07:04

    Часовой пояс: GMT + 2



    Вы не можете начинать темы
    Вы не можете отвечать на сообщения
    Вы не можете редактировать свои сообщения
    Вы не можете удалять свои сообщения
    Вы не можете голосовать в опросах
    Вы не можете прикреплять файлы к сообщениям
    Вы не можете скачивать файлы