BitTorrentTracker PerecTracker.org
BitTorrentTracker PerecTracker.org
    
Регистрация  ·  Вход
 
 · 
Забыли пароль?

  • В сердце моря / In the Heart of the Sea (Рон Ховард / Ron Howard) [2015 г., США, Австралия, Испания, Великобритания, Канада, боевик, триллер, драма, приключения, биография, история, BDRip-AVC] Dub + AVO (Живов) + Original Eng + Sub (Rus, Ukr, Eng)

    Ответить на тему
     
    Автор Сообщение

    Light

    Создавать темы 05-Май-2016 01:05

           

    [Цитировать]

    -В сердце моря / In the Heart of the Sea«Based on the incredible true story that inspired Moby-Dick»Страна: США, Австралия, Испания, Великобритания, Канада
    Студия: Cott Productions, Enelmar Productions, A.I.E., Imagine Entertainment, K. JAM Media, Roth Films, Spring Creek Productions, Sur-Film, Village Roadshow Pictures, Warner Bros. Pictures
    Жанр: боевик, триллер, драма, приключения, биография, история
    Год выпуска: 2015
    Продолжительность: 02:01:43-Перевод 1: Профессиональный (полное дублирование) BD EUR
    Перевод 2: Авторский (одноголосый закадровый) Ю. Живов
    Оригинальная аудиодорожка: английская
    Cубтитры: русские, украинские, английские
    Режиссер: Рон Ховард / Ron Howard
    В ролях: Крис Хемсворт, Бенджамин Уокер, Киллиан Мёрфи, Брендан Глисон, Бен Уишоу, Мишель Фэйрли, Том Холланд, Пол Андерсон, Фрэнк Диллэйн, Джозеф Моул
    Описание: В 1819 году американский корабль «Эссекс» с командой из двух десятков человек на борту отправился из порта в штате Массачусетс на китобойный промысел. Осенью 1820-го успешная на протяжении полутора лет охота была прервана атакой гигантского кашалота на судно, в результате чего морякам пришлось пересесть в шлюпки. В течение трех с лишним месяцев они боролись за выживание посреди океана…-
    Сэмпл: скачать-Релиз от -
    Автор рипа: Elheym
    Качество: BDRip-AVC (источник: / Blu-ray Remux [IN_THE_HEART_OF_THE_SEA_REMUX_HDCLUB] / 1080p)
    Контейнер: MKV
    Видео: 1152x648 (16:9), 23.976 fps, MPEG-4 AVC, ~3574 kbps avg, 0.200 bit/pixel
    Аудио #1: Русский: AC3, 5.1, 48 kHz, ~448 Кбит/с | Профессиональный (полное дублирование) BD EUR |
    Аудио #2: Английский: AC3, 5.1, 48 kHz, ~448 Кбит/с | Оригинал |
    Аудио #3: Русский: AC3, 5.1, 48 kHz, ~448 Кбит/с | Авторский (одноголосый закадровый) Ю. Живов | (отдельно, в составе раздачи)
    Субтитры: русские (полные: BD, iTunes; форсированные), украинские (форсированные), английские (полные, SDH, SDH цветные: х2)
    Главы: присутствуют, сохранены оригинальные

    MediaInfo

    Уникальный идентификатор : 218768322801811084446247505319559856393 (0xA4953F128BC0959D8C28E854FC1A8109)
    Полное имя : In.the.Heart.of.the.Sea.2015.BDRip-AVC.Rus.Eng.-HQCLUB.mkv
    Формат : Matroska
    Версия формата : Version 2
    Размер файла : 3,88 Гбайт
    Продолжительность : 2 ч. 1 м.
    Общий поток : 4561 Кбит/сек
    Название фильма : В сердце моря / In the Heart of the Sea (2015) BDRip-AVC by Elheym [HQCLUB]
    Дата кодирования : UTC 2016-05-04 09:18:15
    Программа кодирования : mkvmerge v5.2.0 ('I can't explain') built on Dec 18 2011 18:12:03
    Библиотека кодирования : libebml v1.2.3 + libmatroska v1.3.0
    Обложка : Yes
    Attachments : cover.jpg
    Видео
    Идентификатор : 1
    Формат : AVC
    Формат/Информация : Advanced Video Codec
    Профиль формата : High@L4
    Параметр CABAC формата : Да
    Параметр ReFrames формата : 10 кадров
    Идентификатор кодека : V_MPEG4/ISO/AVC
    Продолжительность : 2 ч. 1 м.
    Битрейт : 3574 Кбит/сек
    Ширина : 1152 пикселя
    Высота : 648 пикселей
    Соотношение сторон : 16:9
    Режим частоты кадров : Постоянный
    Частота кадров : 23,976 (24000/1001) кадра/сек
    Цветовое пространство : YUV
    Субдискретизация насыщенности : 4:2:0
    Битовая глубина : 8 бит
    Тип развёртки : Прогрессивная
    Бит/(Пиксели*Кадры) : 0.200
    Размер потока : 3,04 Гбайт (78%)
    Заголовок : В сердце моря / In the Heart of the Sea (2015) BDRip-AVC by Elheym [HQCLUB]
    Библиотека кодирования : x264 core 148 r2692+54 69a6f49 t_mod_Custom [8-bit@all X86_64]
    Настройки программы : cabac=1 / ref=10 / deblock=1:-3:-2 / analyse=0x3:0x113 / me=umh / subme=10 / psy=1 / fade_compensate=0.00 / psy_rd=1.10:0.00 / mixed_ref=1 / me_range=32 / chroma_me=1 / trellis=2 / 8x8dct=1 / cqm=0 / deadzone=21,11 / fast_pskip=0 / chroma_qp_offset=-2 / threads=6 / lookahead_threads=2 / sliced_threads=0 / nr=0 / decimate=0 / interlaced=0 / bluray_compat=0 / constrained_intra=0 / fgo=0 / bframes=12 / b_pyramid=2 / b_adapt=2 / b_bias=0 / direct=3 / weightb=1 / open_gop=0 / weightp=2 / keyint=230 / keyint_min=23 / scenecut=40 / intra_refresh=0 / rc_lookahead=80 / rc=crf / mbtree=0 / crf=22.0000 / qcomp=0.70 / qpmin=0:0:0 / qpmax=69:69:69 / qpstep=4 / vbv_maxrate=20000 / vbv_bufsize=25000 / crf_max=0.0 / nal_hrd=none / filler=0 / ip_ratio=1.40 / pb_ratio=1.30 / aq=3:1.00 / aq-sensitivity=10.00 / aq-factor=1.00:1.00:1.00 / aq2=0 / aq3=2:[0.70:0.70]:[0.70:0.70]:[0.70:0.70]:[0.70:0.70] / aq3-sensitivity=10.00 / aq3-factor=[1.00:1.00]:[1.00:1.00]:[1.00:1.00] / aq3-boundary=192:64:24
    Язык : English
    Default : Да
    Forced : Нет
    Аудио #1
    Идентификатор : 2
    Формат : AC-3
    Формат/Информация : Audio Coding 3
    Расширение режима : CM (complete main)
    Параметр Endianness формата : Big
    Идентификатор кодека : A_AC3
    Продолжительность : 2 ч. 1 м.
    Вид битрейта : Постоянный
    Битрейт : 448 Кбит/сек
    Каналы : 6 каналов
    Расположение каналов : Front: L C R, Side: L R, LFE
    Частота : 48,0 КГц
    Частота кадров : 31,250 кадров/сек (1536 spf)
    Метод сжатия : С потерями
    Размер потока : 390 Мбайт (10%)
    Заголовок : АС3 5.1 @ 448 kbps - Dub, BD EUR
    Язык : Russian
    Default : Нет
    Forced : Нет
    Аудио #2
    Идентификатор : 3
    Формат : AC-3
    Формат/Информация : Audio Coding 3
    Расширение режима : CM (complete main)
    Параметр Endianness формата : Big
    Идентификатор кодека : A_AC3
    Продолжительность : 2 ч. 1 м.
    Вид битрейта : Постоянный
    Битрейт : 448 Кбит/сек
    Каналы : 6 каналов
    Расположение каналов : Front: L C R, Side: L R, LFE
    Частота : 48,0 КГц
    Частота кадров : 31,250 кадров/сек (1536 spf)
    Метод сжатия : С потерями
    Размер потока : 390 Мбайт (10%)
    Заголовок : АС3 5.1 @ 448 kbps - Original
    Язык : English
    Default : Нет
    Forced : Нет
    Текст #1
    Идентификатор : 4
    Формат : UTF-8
    Идентификатор кодека : S_TEXT/UTF8
    Идентификатор кодека/Информация : UTF-8 Plain Text
    Заголовок : Full, BD
    Язык : Russian
    Default : Нет
    Forced : Нет
    Текст #2
    Идентификатор : 5
    Формат : UTF-8
    Идентификатор кодека : S_TEXT/UTF8
    Идентификатор кодека/Информация : UTF-8 Plain Text
    Заголовок : Full, iTunes
    Язык : Russian
    Default : Нет
    Forced : Нет
    Текст #3
    Идентификатор : 6
    Формат : UTF-8
    Идентификатор кодека : S_TEXT/UTF8
    Идентификатор кодека/Информация : UTF-8 Plain Text
    Заголовок : Forced
    Язык : Russian
    Default : Нет
    Forced : Нет
    Текст #4
    Идентификатор : 7
    Формат : UTF-8
    Идентификатор кодека : S_TEXT/UTF8
    Идентификатор кодека/Информация : UTF-8 Plain Text
    Заголовок : Forced
    Язык : Ukrainian
    Default : Нет
    Forced : Нет
    Текст #5
    Идентификатор : 8
    Формат : UTF-8
    Идентификатор кодека : S_TEXT/UTF8
    Идентификатор кодека/Информация : UTF-8 Plain Text
    Заголовок : Full, V1
    Язык : English
    Default : Нет
    Forced : Нет
    Текст #6
    Идентификатор : 9
    Формат : UTF-8
    Идентификатор кодека : S_TEXT/UTF8
    Идентификатор кодека/Информация : UTF-8 Plain Text
    Заголовок : Full, V2
    Язык : English
    Default : Нет
    Forced : Нет
    Текст #7
    Идентификатор : 10
    Формат : UTF-8
    Идентификатор кодека : S_TEXT/UTF8
    Идентификатор кодека/Информация : UTF-8 Plain Text
    Заголовок : SDH V1
    Язык : English
    Default : Нет
    Forced : Нет
    Текст #8
    Идентификатор : 11
    Формат : UTF-8
    Идентификатор кодека : S_TEXT/UTF8
    Идентификатор кодека/Информация : UTF-8 Plain Text
    Заголовок : SDH V2
    Язык : English
    Default : Нет
    Forced : Нет
    Текст #9
    Идентификатор : 12
    Формат : UTF-8
    Идентификатор кодека : S_TEXT/UTF8
    Идентификатор кодека/Информация : UTF-8 Plain Text
    Заголовок : SDH Colored V1
    Язык : English
    Default : Нет
    Forced : Нет
    Текст #10
    Идентификатор : 13
    Формат : UTF-8
    Идентификатор кодека : S_TEXT/UTF8
    Идентификатор кодека/Информация : UTF-8 Plain Text
    Заголовок : SDH Colored V2
    Язык : English
    Default : Нет
    Forced : Нет
    Меню
    00:00:00.000 : :Chapter 01
    00:12:07.518 : :Chapter 02
    00:21:19.736 : :Chapter 03
    00:33:31.968 : :Chapter 04
    00:42:37.011 : :Chapter 05
    00:51:32.712 : :Chapter 06
    01:06:45.835 : :Chapter 07
    01:13:14.014 : :Chapter 08
    01:23:23.287 : :Chapter 09
    01:33:47.872 : :Chapter 10
    01:43:22.029 : :Chapter 11
    01:53:00.774 : :Chapter 12
    02:01:42.920 : :Chapter 13

    x264 log

    x264 [info]: frame I:1136 Avg QP:17.84 size: 62514
    x264 [info]: frame P:42913 Avg QP:19.50 size: 33778
    x264 [info]: frame B:131055 Avg QP:21.29 size: 13904
    x264 [info]: consecutive B-frames: 2.9% 3.5% 11.7% 33.7% 17.3% 21.7% 3.5% 2.3% 0.9% 0.4% 0.6% 0.6% 1.1%
    x264 [info]: ref P L0: 47.2% 10.5% 16.0% 7.1% 5.7% 4.0% 3.4% 2.1% 2.0% 1.9% 0.2% 0.0%
    x264 [info]: ref B L0: 76.6% 9.8% 5.1% 2.7% 2.0% 1.6% 1.2% 0.7% 0.3%
    x264 [info]: ref B L1: 95.8% 4.2%

    Скриншоты

    Сравнения с исходником

    Источник- -Рип-
    Цитата:
    Цитата:

    • Заказ перевода у Юрия Живова (март 2016 г.) - ylnian.
      За сборку дороги спасибо rammzez.
    Скачать .torrent

    Скачать торрент-файл бесплатно и на максимальной скорости!

    Как скачивать? · Что такое торрент? · Рейтинг и ограничения

    !ВНИМАНИЕ!
    Сайт не распространяет и не хранит электронные версии произведений, а занимается лишь лишь предоставлением доступа к создаваемому пользователями каталогу ссылок на торрент-файлы, которые содержат только списки хеш-сумм, убедительная просьба с жалобами обращаться напрямую к пользователю. Файлы для обмена на трекере предоставлены пользователями сайта, и администрация не несёт ответственности за их содержание. Просьба не заливать файлы, защищенные авторскими правами, а также файлы нелегального содержания!


    _________________
    [Профиль] [ЛС]
    Показать сообщения:    
    Ответить на тему

    Текущее время: Сегодня, в 18:40

    Часовой пояс: GMT + 2



    Вы не можете начинать темы
    Вы не можете отвечать на сообщения
    Вы не можете редактировать свои сообщения
    Вы не можете удалять свои сообщения
    Вы не можете голосовать в опросах
    Вы не можете прикреплять файлы к сообщениям
    Вы не можете скачивать файлы