BitTorrentTracker PerecTracker.org
BitTorrentTracker PerecTracker.org
    
Регистрация  ·  Вход
 
 · 
Забыли пароль?

  • Привет, друзья! / Салют, друзья! / Saludos Amigos! (Уилфред Джексон / Wilfred Jackson, Джек Кинни / Jack Kinney, Хэмильтон Ласки / Hamilton Luske, Билл Робертс / Bill Roberts) [1942, США, Мультфильм, приключения, WEB-DLRip] Dub + 3xMVO + AVO + Orig

    Ответить на тему
     
    Автор Сообщение

    Flirldrerve

    Создавать темы 04-Май-2016 21:00

           

    [Цитировать]

    Привет, друзья! / Салют, друзья! / Saludos Amigos!--Страна: США
    Жанр: Мультфильм, приключения
    Продолжительность: 00:42:03
    Год выпуска: 1942
    -Перевод: Профессиональный (дублированный) | Disney
    Перевод: Профессиональный (многоголосый, закадровый) | ИДДК
    Перевод: Профессиональный (многоголосый, закадровый) | DVD-Магия
    Перевод: Профессиональный (многоголосый, закадровый) | New Dream Media
    Перевод 2: Авторский (одноголосый, закадровый) | Юрий Живов
    Субтитры: русские (форсированные) + английские (полные, внешние, srt)
    -Режиссёры: Уилфред Джексон / Wilfred Jackson, Джек Кинни / Jack Kinney, Хэмильтон Ласки / Hamilton Luske, Билл Робертс / Bill Roberts-Описание:
    Великолепный мультфильм, в котором музыка, песни, танцы сочетаются с прекрасными видами Латинской Америки. В этой экспедиции экскурсоводами выступят неподражаемые Гуффи, Дональд Дак и его южноамериканский напарник Хосе Кариока. Сочетание мультипликации и документальной съемки о Латинской Америке. Художники-мультипликаторы студии Диснея и сам Уолт Дисней живьём на экране.
    -Релиз групп All Films, RG Torrents.ru и RG Мультфильмы-Сэмпл: https://www.sendspace.com/file/2h96ma-Качество: WEB-DLRip - Исходник (Спасибо -Azureus-)
    Формат: AVI
    Видео: 704x528 (1.33:1), 23.976 fps, XviD build 73 ~2095 kbps avg, 0.23 bit/pixel
    Аудио: 48 kHz, AC3 Dolby Digital, 2/0 (L,R) ch, ~192 kbps | Dub
    Аудио 2: 48 kHz, AC3 Dolby Digital, 2/0 (L,R) ch, ~192 kbps | ИДДК
    Аудио 3: 48 kHz, AC3 Dolby Digital, 3/2 (L,C,R,l,r) + LFE ch, ~384 kbps | DVD-Магия (Отдельно)
    Аудио 4: 48 kHz, AC3 Dolby Digital, 2/0 (L,R) ch, ~224 kbps | New Dream Media (Отдельно)
    Аудио 5: 48 kHz, AC3 Dolby Digital, 3/2 (L,C,R,l,r) + LFE ch, ~384 kbps | AVO (Отдельно)
    Аудио 6: 48 kHz, AC3 Dolby Digital, 3/2 (L,C,R,l,r) + LFE ch, ~384 kbps | Eng (Отдельно)
    -Цитата:
    Цитата:

    - За голос Живова спасибо [url=profile.php?mode=viewprofile&u=1936816]multmir[/url]
    - За Дубляж и работу со звуком спасибо [url=profile.php?mode=viewprofile&u=1793838]xfiles[/url]
    - Работа с WEB-DL и звуком [url=profile.php?mode=viewprofile&u=6758562]-Azureus-[/url]-доп. информация: в раздаче имеется не переведенный голосом момент с 00:24:10 по 00:24:16 минуты, на этот кусок были сделаны русские субтитры, большое спасибо [url=profile.php?mode=viewprofile&u=21809984]SergeZuich[/url]
    Дубляж имеется только на три мультфильма (Lake Titicaca, Pedro, El Gaucho Goofy), вставки между ними и на мультфильм "Aquarela do Brasil" были взяты из озвучки "New Dream Media", тайминг вставок 00:00:00 - 00:04:36, 00:11:01 - 00:12:12, 00:20:01 - 00:24:30, 00:31:06 - 00:42:03.

    -

    Отчёт MediaInfo

    General
    Complete name : C:\Users\Максим\Desktop\Saludos.Amigos!1942.WEB-DLRip.polkera\Saludos.Amigos!1942.WEB-DLRip.polkera.avi
    Format : AVI
    Format/Info : Audio Video Interleave
    File size : 750 MiB
    Duration : 42mn 3s
    Overall bit rate : 2 494 Kbps
    Writing application : VirtualDubMod 1.5.10.3 | www.virtualdub-fr.org || (build 2550/release)
    Writing library : VirtualDubMod build 2550/release
    Video
    Format : MPEG-4 Visual
    Format profile : Streaming Video@L1
    Format settings, BVOP : Yes
    Format settings, QPel : No
    Format settings, GMC : No warppoints
    Format settings, Matrix : Custom
    Codec ID : XVID
    Codec ID/Hint : XviD
    Duration : 42mn 3s
    Bit rate : 2 096 Kbps
    Width : 704 pixels
    Height : 528 pixels
    Display aspect ratio : 4/3
    Frame rate : 23.976 fps
    Resolution : 24 bits
    Colorimetry : 4:2:0
    Scan type : Progressive
    Bits/(Pixel*Frame) : 0.235
    Stream size : 631 MiB (84%)
    Writing library : XviD 73
    Audio #1
    Format : AC-3
    Format/Info : Audio Coding 3
    Codec ID : 2000
    Duration : 42mn 3s
    Bit rate mode : Constant
    Bit rate : 192 Kbps
    Channel(s) : 2 channels
    Channel positions : L R
    Sampling rate : 48.0 KHz
    Stream size : 57.8 MiB (8%)
    Alignment : Split accross interleaves
    Interleave, duration : 42 ms (1.00 video frame)
    Interleave, preload duration : 500 ms
    Audio #2
    Format : AC-3
    Format/Info : Audio Coding 3
    Codec ID : 2000
    Duration : 42mn 3s
    Bit rate mode : Constant
    Bit rate : 192 Kbps
    Channel(s) : 2 channels
    Channel positions : L R
    Sampling rate : 48.0 KHz
    Stream size : 57.8 MiB (8%)
    Alignment : Split accross interleaves
    Interleave, duration : 42 ms (1.00 video frame)
    Interleave, preload duration : 500 ms

    -

    Скриншоты

    -
    |
    |
    Скачать .torrent

    Скачать торрент-файл бесплатно и на максимальной скорости!

    Как скачивать? · Что такое торрент? · Рейтинг и ограничения

    !ВНИМАНИЕ!
    Сайт не распространяет и не хранит электронные версии произведений, а занимается лишь лишь предоставлением доступа к создаваемому пользователями каталогу ссылок на торрент-файлы, которые содержат только списки хеш-сумм, убедительная просьба с жалобами обращаться напрямую к пользователю. Файлы для обмена на трекере предоставлены пользователями сайта, и администрация не несёт ответственности за их содержание. Просьба не заливать файлы, защищенные авторскими правами, а также файлы нелегального содержания!


    _________________
    [Профиль] [ЛС]
    Показать сообщения:    
    Ответить на тему

    Текущее время: Сегодня, в 18:26

    Часовой пояс: GMT + 2



    Вы не можете начинать темы
    Вы не можете отвечать на сообщения
    Вы не можете редактировать свои сообщения
    Вы не можете удалять свои сообщения
    Вы не можете голосовать в опросах
    Вы не можете прикреплять файлы к сообщениям
    Вы не можете скачивать файлы