BitTorrentTracker PerecTracker.org
BitTorrentTracker PerecTracker.org
    
Регистрация  ·  Вход
 
 · 
Забыли пароль?

  • Чужая страна / Strangerland (Ким Фаррант / Kim Farrant) [2015, Австралия, Ирландия, Триллер, драма, BDRip] MVO

    Ответить на тему
     
    Автор Сообщение

    Light

    Создавать темы 04-Май-2016 21:00

           

    [Цитировать]

    Чужая страна / Strangerland-Страна: Австралия, Ирландия
    Жанр: Триллер, драма
    Год выпуска: 2015
    Продолжительность: 01:51:15-Перевод: Профессиональный (многоголосый закадровый) - Официальный звук
    Cубтитры: нет-Режиссер: Ким Фаррант / Kim Farrant-В ролях: Николь Кидман, Джозеф Файнс, Хьюго Уивинг, Лиза Флэнеган, Мейн Уайат,Мэддисон Браун, Николас Хэмилтон, Джим Расселл, Шон Кинэн-Описание: В городке где-то посреди австралийской пустыни двое детей-подростков выходят ночью из дома и пропадают без следа. Кэтрин и Мэтью Паркеры(Николь Кидман и Джозеф Файнс) бросают все силы, чтобы найти своих детей. Однако чтобы докопаться до правды, родителям придется столкнуться с тем, от чего они так далеко убежали — с прошлым. Обжигающая красота Нового Южного Уэльса и бесподобная игра Кидман, Файнса и Уивинг делают этот триллер поистине искусным зрелищем.- l -Качество видео: BDRip | исх. Strangerland.2015.1080p.BluRay.REMUX.AVC.DTS-HD.MA.5.1 |
    Формат видео: AVI-Видео: 720x304 (2.35:1), 23.976 fps, XviD build 73 ~1415 Kbps, 0.27 bit/pixel
    Аудио: 48 kHz, AC3 Dolby Digital, 2/0 (L,R) ch, ~384 kbps-Релиз от:
    -

    MediaInfo

    General
    Complete name : Downloads\Chuzhaja.strana.2015.P.BDRip
    Format : AVI
    Format/Info : Audio Video Interleave
    File size : 1.41 GiB
    Duration : 1h 51mn
    Overall bit rate : 1 808 Kbps
    Writing application : VirtualDubMod 1.5.10.3 (build 2550/release)
    Video #0
    ID : 0
    Format : MPEG-4 Visual
    Format profile : Advanced Simple@L5
    Format settings, BVOP : 2
    Format settings, QPel : No
    Format settings, GMC : No warppoints
    Format settings, Matrix : Custom
    Codec ID : XVID
    Codec ID/Hint : XviD
    Duration : 1h 51mn
    Bit rate : 1 415 Kbps
    Width : 720 pixels
    Height : 304 pixels
    Display aspect ratio : 2.35:1
    Frame rate : 23.976 fps
    Color space : YUV
    Chroma subsampling : 4:2:0
    Bit depth : 8 bits
    Scan type : Progressive
    Compression mode : Lossy
    Bits/(Pixel*Frame) : 0.270
    Stream size : 1.10 GiB (78%)
    Writing library : XviD 73
    Audio #1
    ID : 1
    Format : AC-3
    Format/Info : Audio Coding 3
    Mode extension : CM (complete main)
    Format settings, Endianness : Big
    Codec ID : 2000
    Duration : 1h 51mn
    Bit rate mode : Constant
    Bit rate : 384 Kbps
    Channel(s) : 2 channels
    Channel positions : Front: L R
    Sampling rate : 48.0 KHz
    Bit depth : 16 bits
    Compression mode : Lossy
    Delay relative to video : 2ms
    Stream size : 306 MiB (21%)
    Alignment : Split accross interleaves
    Interleave, duration : 42 ms (1.00 video frame)
    Interleave, preload duration : 500 ms

    Скриншот c названием фильма

    Скриншоты

    Скачать .torrent

    Скачать торрент-файл бесплатно и на максимальной скорости!

    Как скачивать? · Что такое торрент? · Рейтинг и ограничения

    !ВНИМАНИЕ!
    Сайт не распространяет и не хранит электронные версии произведений, а занимается лишь лишь предоставлением доступа к создаваемому пользователями каталогу ссылок на торрент-файлы, которые содержат только списки хеш-сумм, убедительная просьба с жалобами обращаться напрямую к пользователю. Файлы для обмена на трекере предоставлены пользователями сайта, и администрация не несёт ответственности за их содержание. Просьба не заливать файлы, защищенные авторскими правами, а также файлы нелегального содержания!


    _________________
    [Профиль] [ЛС]
    Показать сообщения:    
    Ответить на тему

    Текущее время: Сегодня, в 05:10

    Часовой пояс: GMT + 2



    Вы не можете начинать темы
    Вы не можете отвечать на сообщения
    Вы не можете редактировать свои сообщения
    Вы не можете удалять свои сообщения
    Вы не можете голосовать в опросах
    Вы не можете прикреплять файлы к сообщениям
    Вы не можете скачивать файлы