BitTorrentTracker PerecTracker.org
BitTorrentTracker PerecTracker.org
    
Регистрация  ·  Вход
 
 · 
Забыли пароль?

  • Паприка / Paprika (Тинто Брасс / Tinto Brass) [1991, Италия, драма, эротика, BDRemux 1080p] DVO + Sub Rus, Eng + Original Ita

    Ответить на тему
     
    Автор Сообщение

    Light

    Создавать темы 04-Май-2016 16:51

           

    [Цитировать]

    -Паприка / Paprika-Страна: Италия
    Жанр: драма, эротика
    Год выпуска: 1991
    Продолжительность: 01:55:51-Перевод: Профессиональный (двухголосый закадровый)
    Cубтитры: русские, английские
    Оригинальная аудиодорожка: итальянский-Режиссер: Тинто Брасс / Tinto Brass
    В ролях: Дебора Каприольо, Стефан Феррара, Мартина Брошар, Стефани Бонне, Россана Гавинель, Ренцо Ринальди, Нина Солдано, Клара Альгранти, Лучана Чиренеи, Джон Стайнер-Описание: Желая помочь своему жениху, Мима решает подзаработать в публичном доме. Наивная и рискованная затея вовлекает Миму в цепь эротических приключений, из которой не так-то легко выбраться. Но жених обманул ее и скрылся. Тогда девушка решает сделать свое временное занятие профессией всей жизни. Мима, за свой горячий нрав и необузданную чувственность прозванная Паприкой, кочует из борделя в бордель, и однажды судьба делает девушке роскошный подарок в лице эксцентричного аристократа, предложившего ей руку и сердце...-Сэмпл-Тип релиза: BDRemux 1080p
    Контейнер: MKV
    Видео: MPEG-4 AVC Video / 20000 kbps / 1080p / 23.976 fps / 16:9 / High Profile 4.1
    Аудио: Russian / Dolby Digital Audio / 2.0 / 48 kHz / 192 kbps
    Аудио 2: Italian / Dolby Digital Audio / 2.0 / 48 kHz / 192 kbps
    Формат субтитров: softsub (SRT)

    MI

    GeneralUnique ID : 200727925535503813024122591563817820474 (0x9702CAD0A83C91D994FFA21BD852213A)Complete name : S:\На хранении\Паприка (1991. Paprika).mkvFormat : MatroskaFormat version : Version 4 / Version 2File size : 16.5 GiBDuration : 1h 55mnOverall bit rate mode : VariableOverall bit rate : 20.4 MbpsMovie name : Release for RuTrackerEncoded date : UTC 2016-05-03 04:11:38Writing application : mkvmerge v9.0.1 ('Obstacles') 64bitWriting library : libebml v1.3.3 + libmatroska v1.4.4Cover : YesAttachments : Cover.jpg
    VideoID : 1Format : AVCFormat/Info : Advanced Video CodecFormat profile : High@L4.1Format settings, CABAC : YesFormat settings, ReFrames : 4 framesFormat settings, GOP : M=3, N=18Codec ID : V_MPEG4/ISO/AVCDuration : 1h 55mnBit rate mode : VariableBit rate : 20.0 MbpsMaximum bit rate : 30.0 MbpsWidth : 1 920 pixelsHeight : 1 080 pixelsDisplay aspect ratio : 16:9Frame rate mode : ConstantFrame rate : 23.976 (24000/1001) fpsStandard : NTSCColor space : YUVChroma subsampling : 4:2:0Bit depth : 8 bitsScan type : ProgressiveBits/(Pixel*Frame) : 0.402Stream size : 16.2 GiB (98%)Title : Paprika.1991.1080p.BluRay.AVC.DD.2.0-JRLanguage : ItalianDefault : YesForced : NoColor range : LimitedColor primaries : BT.709Transfer characteristics : BT.709Matrix coefficients : BT.709
    Audio #1ID : 2Format : AC-3Format/Info : Audio Coding 3Mode extension : CM (complete main)Format settings, Endianness : BigCodec ID : A_AC3Duration : 1h 55mnBit rate mode : ConstantBit rate : 192 KbpsChannel(s) : 2 channelsChannel positions : Front: L RSampling rate : 48.0 KHzFrame rate : 31.250 fps (1536 spf)Compression mode : LossyStream size : 159 MiB (1%)Title : DVOLanguage : RussianDefault : YesForced : No
    Audio #2ID : 3Format : AC-3Format/Info : Audio Coding 3Mode extension : CM (complete main)Format settings, Endianness : BigCodec ID : A_AC3Duration : 1h 55mnBit rate mode : ConstantBit rate : 192 KbpsChannel(s) : 2 channelsChannel positions : Front: L RSampling rate : 48.0 KHzFrame rate : 31.250 fps (1536 spf)Compression mode : LossyStream size : 159 MiB (1%)Language : ItalianDefault : NoForced : No
    Text #1ID : 4Format : UTF-8Codec ID : S_TEXT/UTF8Codec ID/Info : UTF-8 Plain TextDuration : 1h 54mnBit rate : 77 bpsCount of elements : 946Stream size : 64.7 KiB (0%)Language : RussianDefault : NoForced : No
    Text #2ID : 5Format : UTF-8Codec ID : S_TEXT/UTF8Codec ID/Info : UTF-8 Plain TextDuration : 1h 53mnBit rate : 39 bpsCount of elements : 1065Stream size : 32.7 KiB (0%)Language : EnglishDefault : NoForced : No
    Menu00:00:00.000 : en:00:00:00.00000:11:48.249 : en:00:11:48.24900:18:56.177 : en:00:18:56.17700:27:10.087 : en:00:27:10.08700:38:14.667 : en:00:38:14.66700:51:11.485 : en:00:51:11.48500:58:07.275 : en:00:58:07.27501:09:22.116 : en:01:09:22.11601:18:22.823 : en:01:18:22.82301:29:18.770 : en:01:29:18.77001:40:59.512 : en:01:40:59.51201:53:43.316 : en:01:53:43.316
    Скриншоты

    Зеркало


    Цитата:
    Цитата:

    • Русская дорога и субтитры с этого DVD.
    • Сохранены оригинальные чаптеры как на Blu-ray.
    Скачать .torrent

    Скачать торрент-файл бесплатно и на максимальной скорости!

    Как скачивать? · Что такое торрент? · Рейтинг и ограничения

    !ВНИМАНИЕ!
    Сайт не распространяет и не хранит электронные версии произведений, а занимается лишь лишь предоставлением доступа к создаваемому пользователями каталогу ссылок на торрент-файлы, которые содержат только списки хеш-сумм, убедительная просьба с жалобами обращаться напрямую к пользователю. Файлы для обмена на трекере предоставлены пользователями сайта, и администрация не несёт ответственности за их содержание. Просьба не заливать файлы, защищенные авторскими правами, а также файлы нелегального содержания!


    _________________
    [Профиль] [ЛС]
    Показать сообщения:    
    Ответить на тему

    Текущее время: Сегодня, в 18:29

    Часовой пояс: GMT + 2



    Вы не можете начинать темы
    Вы не можете отвечать на сообщения
    Вы не можете редактировать свои сообщения
    Вы не можете удалять свои сообщения
    Вы не можете голосовать в опросах
    Вы не можете прикреплять файлы к сообщениям
    Вы не можете скачивать файлы