BitTorrentTracker PerecTracker.org
BitTorrentTracker PerecTracker.org
    
Регистрация  ·  Вход
 
 · 
Забыли пароль?

  • Безболезненный / Нечувствительный / Insensibles (Хуан Карлос Медина / Juan Carlos Medina) [2012, Испания, Франция, Португалия, ужасы, фэнтези, триллер, детектив, BDRip 720p] MVO (ivi) + VO (den904) + Original (Spa) + Sub (Eng)

    Ответить на тему
     
    Автор Сообщение

    Light

    Создавать темы 04-Май-2016 16:51

           

    [Цитировать]

    Безболезненный / Нечувствительный / Insensibles-Страна: Испания, Франция, Португалия
    Жанр: ужасы, фэнтези, триллер, детектив
    Год выпуска: 2012
    Продолжительность: 01:45:36-Перевод №1: Профессиональный (многоголосый закадровый) - ivi
    Перевод №2: Одноголосый закадровый - den904 по переводу Janetta
    Оригинальная аудиодорожка: Spanish
    Cубтитры: English (full)
    Навигация по главам: присутствует - 10 глав-Режиссер: Хуан Карлос Медина / Juan Carlos Medina
    В ролях: Ирене Монтала, Дерек де Линт, Феликс Гомес ,Томас Лемаркус, Хуан Диего, Алекс Брендемюль, Ричард Феликс, Беа Сегура ,Луис Соле, Сильвия БелЭдельман-Описание: Группа детей, нечувствительных к боли, содержится во время испанской гражданской войны в сердце Пиреней. В наши дни блестящий нейрохирург обнаруживает, что у него опухоль и отправляется на поиски биологических родителей, чтобы получить костный мозг для пересадки. По ходу путешествия он узнает ужасные тайны прошлого своей страны.-
    Download sample-Качество видео: BDRip 720p | исх. BDRemux 1080p - thx: [url=profile.php?mode=viewprofile&u=12882701]arxivariys[/url]
    Формат: MKV-Видео: 1 280x544 (2.35:1), 24.000 fps, H.264, 4821.16 kb/s, 0.281 bit/pixel
    Аудио №1: 48.0 kHz, AC3 Dolby Digital, 2/0 (L,R) ch, ~192 kbps avg | Профессиональный (многоголосый закадровый) - ivi
    Аудио №2: 48.0 kHz, AC3 Dolby Digital, 3/2 (L,C,R,l,r) + LFE ch, ~640 kbps avg | Одноголосый закадровый - den904 по переводу Janetta
    Аудио №3: 48.0 kHz, AC3 Dolby Digital, 3/2 (L,C,R,l,r) + LFE ch, ~640 kbps avg | Spanish
    Субтитры №1: English (full) | *.srt-

    MediaInfo

    General
    Unique ID : 205790339477083752312038488631276962492 (0x9AD1C717C525A6B2BB759DCCFE0782BC)
    Complete name : D:\Фильмы\Рипы\Insensibles.2012.BDRip 720p.eFK tRuAVC.mkv
    Format : Matroska
    Format version : Version 4 / Version 2
    File size : 4.64 GiB
    Duration : 1h 45mn
    Overall bit rate : 6 296 Kbps
    Movie name : Безболезненный / Нечувствительный / Insensibles (2012) - Release for rutracker
    Encoded date : UTC 2016-05-03 06:37:43
    Writing application : mkvmerge v7.6.0 ('Garden of Dreams') 64bit built on Feb 8 2015 13:04:34
    Writing library : libebml v1.3.1 + libmatroska v1.4.2
    Attachements : cover.png
    DURATION : 01:45:35.936000000
    NUMBER_OF_FRAMES : 197998
    NUMBER_OF_BYTES : 506874880
    _STATISTICS_WRITING_APP : mkvmerge v7.6.0 ('Garden of Dreams') 64bit built on Feb 8 2015 13:04:34
    _STATISTICS_WRITING_DATE_UT : 2016-05-03 06:37:43
    _STATISTICS_TAGS : BPS DURATION NUMBER_OF_FRAMES NUMBER_OF_BYTES
    Video
    ID : 1
    Format : AVC
    Format/Info : Advanced Video Codec
    Format profile : High@L4.1
    Format settings, CABAC : Yes
    Format settings, ReFrames : 11 frames
    Codec ID : V_MPEG4/ISO/AVC
    Duration : 1h 45mn
    Bit rate : 4 699 Kbps
    Width : 1 280 pixels
    Height : 544 pixels
    Display aspect ratio : 2.35:1
    Frame rate mode : Constant
    Frame rate : 24.000 fps
    Color space : YUV
    Chroma subsampling : 4:2:0
    Bit depth : 8 bits
    Scan type : Progressive
    Bits/(Pixel*Frame) : 0.281
    Stream size : 3.47 GiB (75%)
    Title : eFK tRuAVC
    Writing library : x264 core 148 r2665kMod a01e339
    Encoding settings : cabac=1 / ref=11 / deblock=1:-3:-2 / analyse=0x3:0x113 / me=umh / subme=11 / psy=1 / fade_compensate=0.00 / psy_rd=0.95:0.05 / mixed_ref=1 / me_range=48 / chroma_me=1 / trellis=2 / 8x8dct=1 / cqm=0 / deadzone=21,11 / fast_pskip=0 / chroma_qp_offset=-3 / threads=12 / lookahead_threads=3 / sliced_threads=0 / nr=0 / decimate=1 / interlaced=0 / bluray_compat=0 / constrained_intra=0 / fgo=0 / bframes=16 / b_pyramid=2 / b_adapt=2 / b_bias=0 / direct=3 / weightb=1 / open_gop=0 / weightp=2 / keyint=250 / keyint_min=24 / scenecut=40 / intra_refresh=0 / rc_lookahead=60 / rc=crf / mbtree=0 / crf=16.0000 / qcomp=0.60 / qpmin=0 / qpmax=69 / qpstep=4 / vbv_maxrate=62500 / vbv_bufsize=78125 / crf_max=0.0 / nal_hrd=none / filler=0 / ip_ratio=1.40 / pb_ratio=1.30 / aq=3:0.90
    Language : Spanish
    Default : Yes
    Forced : No
    Color range : Limited
    Color primaries : BT.709
    Transfer characteristics : BT.709
    Matrix coefficients : BT.709
    DURATION : 01:45:35.875000000
    NUMBER_OF_FRAMES : 152061
    NUMBER_OF_BYTES : 3818279837
    _STATISTICS_WRITING_APP : mkvmerge v7.6.0 ('Garden of Dreams') 64bit built on Feb 8 2015 13:04:34
    _STATISTICS_WRITING_DATE_UT : 2016-05-03 06:37:43
    _STATISTICS_TAGS : BPS DURATION NUMBER_OF_FRAMES NUMBER_OF_BYTES
    Audio #1
    ID : 2
    Format : AC-3
    Format/Info : Audio Coding 3
    Mode extension : CM (complete main)
    Format settings, Endianness : Big
    Codec ID : A_AC3
    Duration : 1h 45mn
    Bit rate mode : Constant
    Bit rate : 192 Kbps
    Channel(s) : 2 channels
    Channel positions : Front: L R
    Sampling rate : 48.0 KHz
    Compression mode : Lossy
    Stream size : 145 MiB (3%)
    Title : MVO (ivi)
    Language : Russian
    Default : Yes
    Forced : No
    Audio #2
    ID : 3
    Format : AC-3
    Format/Info : Audio Coding 3
    Mode extension : CM (complete main)
    Format settings, Endianness : Big
    Codec ID : A_AC3
    Duration : 1h 45mn
    Bit rate mode : Constant
    Bit rate : 640 Kbps
    Channel(s) : 6 channels
    Channel positions : Front: L C R, Side: L R, LFE
    Sampling rate : 48.0 KHz
    Compression mode : Lossy
    Stream size : 483 MiB (10%)
    Title : VO (den904)
    Language : Russian
    Default : No
    Forced : No
    Audio #3
    ID : 4
    Format : AC-3
    Format/Info : Audio Coding 3
    Mode extension : CM (complete main)
    Format settings, Endianness : Big
    Codec ID : A_AC3
    Duration : 1h 45mn
    Bit rate mode : Constant
    Bit rate : 640 Kbps
    Channel(s) : 6 channels
    Channel positions : Front: L C R, Side: L R, LFE
    Sampling rate : 48.0 KHz
    Compression mode : Lossy
    Stream size : 483 MiB (10%)
    Language : Spanish
    Default : No
    Forced : No
    Text
    ID : 5
    Format : UTF-8
    Codec ID : S_TEXT/UTF8
    Codec ID/Info : UTF-8 Plain Text
    Title : full
    Language : English
    Default : No
    Forced : No
    Menu
    00:00:00.000 : :Chapter 01
    00:08:24.541 : :Chapter 02
    00:19:28.541 : :Chapter 03
    00:26:50.875 : :Chapter 04
    00:38:31.250 : :Chapter 05
    00:49:00.125 : :Chapter 06
    01:01:15.458 : :Chapter 07
    01:10:44.916 : :Chapter 08
    01:20:19.625 : :Chapter 09
    01:29:38.791 : :Chapter 10

    x264 log

    x264 [info]: frame I:1026 Avg QP:13.04 size:111126
    x264 [info]: frame P:30438 Avg QP:14.29 size: 50449
    x264 [info]: frame B:120597 Avg QP:16.37 size: 17983
    x264 [info]: consecutive B-frames: 2.0% 1.8% 6.7% 13.9% 15.8% 39.9% 6.8% 2.7% 2.6% 1.6% 1.8% 1.4% 1.1% 0.8% 0.5% 0.3% 0.4%
    x264 [info]: mb I I16..4: 15.8% 67.7% 16.5%
    x264 [info]: mb P I16..4: 6.8% 19.9% 1.6% P16..4: 22.2% 32.7% 15.7% 0.0% 0.0% skip: 1.2%
    x264 [info]: mb B I16..4: 3.1% 2.7% 0.2% B16..8: 29.9% 25.0% 6.3% direct: 6.9% skip:25.8% L0:46.7% L1:41.4% BI:11.9%
    x264 [info]: 8x8 transform intra:59.5% inter:47.6%
    x264 [info]: direct mvs spatial:100.0% temporal:0.0%
    x264 [info]: coded y,uvDC,uvAC intra: 65.1% 92.6% 88.1% inter: 28.4% 26.5% 13.8%
    x264 [info]: i16 v,h,dc,p: 85% 2% 5% 8%
    x264 [info]: i8 v,h,dc,ddl,ddr,vr,hd,vl,hu: 12% 9% 19% 8% 10% 11% 9% 11% 11%
    x264 [info]: i4 v,h,dc,ddl,ddr,vr,hd,vl,hu: 10% 7% 17% 8% 13% 13% 11% 10% 10%
    x264 [info]: i8c dc,h,v,p: 67% 11% 10% 13%
    x264 [info]: Weighted P-Frames: Y:8.7% UV:4.8%
    x264 [info]: ref P L0: 41.8% 7.6% 19.1% 7.1% 6.6% 4.6% 4.5% 2.3% 2.3% 1.8% 1.9% 0.3% 0.0%
    x264 [info]: ref B L0: 61.5% 14.6% 7.9% 4.5% 3.3% 3.0% 2.4% 1.6% 0.9% 0.4%
    x264 [info]: ref B L1: 90.5% 9.5%
    x264 [info]: kb/s:4821.15
    x264 [total]: encoded 152061 frames, 5.37 fps, 4821.16 kb/s, duration 7:52:14.90

    Screenshots

    Comparison

    Source

    Encode
    Цитата:
    Цитата:

    • За исходник взят немецкий трансфер



    Скачать .torrent

    Скачать торрент-файл бесплатно и на максимальной скорости!

    Как скачивать? · Что такое торрент? · Рейтинг и ограничения

    !ВНИМАНИЕ!
    Сайт не распространяет и не хранит электронные версии произведений, а занимается лишь лишь предоставлением доступа к создаваемому пользователями каталогу ссылок на торрент-файлы, которые содержат только списки хеш-сумм, убедительная просьба с жалобами обращаться напрямую к пользователю. Файлы для обмена на трекере предоставлены пользователями сайта, и администрация не несёт ответственности за их содержание. Просьба не заливать файлы, защищенные авторскими правами, а также файлы нелегального содержания!


    _________________
    [Профиль] [ЛС]
    Показать сообщения:    
    Ответить на тему

    Текущее время: Сегодня, в 18:07

    Часовой пояс: GMT + 2



    Вы не можете начинать темы
    Вы не можете отвечать на сообщения
    Вы не можете редактировать свои сообщения
    Вы не можете удалять свои сообщения
    Вы не можете голосовать в опросах
    Вы не можете прикреплять файлы к сообщениям
    Вы не можете скачивать файлы