BitTorrentTracker PerecTracker.org
BitTorrentTracker PerecTracker.org
    
Регистрация  ·  Вход
 
 · 
Забыли пароль?

  • Паприка / Paprika (Тинто Брасс / Tinto Brass) [1991, Италия, драма, эротика, BDRip 720p] DVO + Sub Rus, Eng + Original Ita

    Ответить на тему
     
    Автор Сообщение

    Light

    Создавать темы 04-Май-2016 16:51

           

    [Цитировать]

    -Паприка / Paprika-Страна: Италия
    Жанр: драма, эротика
    Год выпуска: 1991
    Продолжительность: 01:55:51-Перевод: Профессиональный (двухголосый закадровый)
    Cубтитры: русские, английские
    Оригинальная аудиодорожка: итальянский-Режиссер: Тинто Брасс / Tinto Brass
    В ролях: Дебора Каприольо, Стефан Феррара, Мартина Брошар, Стефани Бонне, Россана Гавинель, Ренцо Ринальди, Нина Солдано, Клара Альгранти, Лучана Чиренеи, Джон Стайнер-Описание: Желая помочь своему жениху, Мима решает подзаработать в публичном доме. Наивная и рискованная затея вовлекает Миму в цепь эротических приключений, из которой не так-то легко выбраться. Но жених обманул ее и скрылся. Тогда девушка решает сделать свое временное занятие профессией всей жизни. Мима, за свой горячий нрав и необузданную чувственность прозванная Паприкой, кочует из борделя в бордель, и однажды судьба делает девушке роскошный подарок в лице эксцентричного аристократа, предложившего ей руку и сердце...-Сэмпл-Тип релиза: BDRip 720p
    Контейнер: MKV
    Видео: MPEG-4 AVC Video / 10300 kbps / 1200 x 720 p / 23.976 fps / High Profile 4.1
    Аудио: Russian / Dolby Digital Audio / 2.0 / 48 kHz / 192 kbps
    Аудио 2: Italian / Dolby Digital Audio / 2.0 / 48 kHz / 192 kbps
    Формат субтитров: softsub (SRT)

    Видеоряд от VietHD

    MOVIE iNFOGENRE.........: DramaIMDB RATING...: 5.7 (2,007 votes)LINK..........: IMDB
    RELEASE iNFORELEASE NAME..: Paprika 1991 720p BluRay DD2.0 x264-VietHDENCODED DATE..: UTC 2016-04-29 03:11:42RELEASE SIZE..: 8.52 GiBRUNTIME.......: 1h 55mnVIDEO CODEC...: x264, High@L4.1FRAMERATE.....: 23.976 (24000/1001) fpsBITRATE.......: 10.3 MbpsRESOLUTION....: 1200 x 720AUDIO.........: Italian AC-3 2 channels@192 KbpsSUBTITLES.....: EnglishCHAPTERS......: YesSOURCE........: Paprika 1991 1080p Blu-ray AVC DD 2.0(Thank turtlehead)ENCODER.......: Revenge@VietHD
    NOTES-BDinfo indicates Italian sub, but this is English sub.
    x264 iNFOx264 [info]: frame I:1078 Avg QP:11.90 size:155624x264 [info]: frame P:33623 Avg QP:13.00 size: 84626x264 [info]: frame B:131962 Avg QP:14.51 size: 45208x264 [info]: consecutive B-frames: 1.0% 1.3% 6.2% 16.3% 16.8% 55.0% 2.7% 0.7%encoded 166663 frames, 8.928 fps, 10333.63 kb/s, 8563.0 MB, duration 5:11:08-Source vs VietHD: https://someimage.com/vDwz-

    MI

    GeneralUnique ID : 242295820483291578231816154295877432895 (0xB6487A4471878EC4B7BE01E1732AF63F)Complete name : S:\На хранении\Паприка (1991. Paprika) 720p.mkvFormat : MatroskaFormat version : Version 4 / Version 2File size : 8.68 GiBDuration : 1h 55mnOverall bit rate : 10.7 MbpsMovie name : Release for RuTrackerEncoded date : UTC 2016-05-03 12:31:26Writing application : mkvmerge v9.0.1 ('Obstacles') 64bitWriting library : libebml v1.3.3 + libmatroska v1.4.4Cover : YesAttachments : Cover.jpg
    VideoID : 1Format : AVCFormat/Info : Advanced Video CodecFormat profile : High@L4.1Format settings, CABAC : YesFormat settings, ReFrames : 9 framesCodec ID : V_MPEG4/ISO/AVCDuration : 1h 55mnBit rate : 10.3 MbpsWidth : 1 200 pixelsHeight : 720 pixelsDisplay aspect ratio : 5:3Frame rate mode : ConstantFrame rate : 23.976 (24000/1001) fpsColor space : YUVChroma subsampling : 4:2:0Bit depth : 8 bitsScan type : ProgressiveBits/(Pixel*Frame) : 0.499Stream size : 8.36 GiB (96%)Writing library : x264 core 148 r2692.11 7386685 VietHD_Custom_64Encoding settings : cabac=1 / ref=9 / deblock=1:-3:-3 / analyse=0x3:0x133 / me=umh / subme=10 / psy=1 / fade_compensate=0.00 / psy_rd=1.15:0.00 / mixed_ref=1 / me_range=24 / chroma_me=1 / trellis=2 / 8x8dct=1 / cqm=0 / deadzone=21,11 / fast_pskip=0 / chroma_qp_offset=-2 / threads=12 / lookahead_threads=2 / sliced_threads=0 / nr=0 / decimate=0 / interlaced=0 / bluray_compat=0 / constrained_intra=0 / fgo=0 / bframes=7 / b_pyramid=2 / b_adapt=2 / b_bias=0 / direct=3 / weightb=1 / open_gop=0 / weightp=2 / keyint=250 / keyint_min=23 / scenecut=40 / intra_refresh=0 / rc_lookahead=60 / rc=crf / mbtree=0 / crf=14.3000 / qcomp=0.68 / qpmin=0:0:0 / qpmax=69:69:69 / qpstep=4 / vbv_maxrate=62500 / vbv_bufsize=78125 / crf_max=0.0 / nal_hrd=none / filler=0 / ip_ratio=1.30 / pb_ratio=1.20 / aq=3:0.60 / aq-sensitivity=10.00 / aq-factor=1.00:1.00:1.00 / aq2=0 / aq3=0Language : EnglishDefault : YesForced : No
    Audio #1ID : 2Format : AC-3Format/Info : Audio Coding 3Mode extension : CM (complete main)Format settings, Endianness : BigCodec ID : A_AC3Duration : 1h 55mnBit rate mode : ConstantBit rate : 192 KbpsChannel(s) : 2 channelsChannel positions : Front: L RSampling rate : 48.0 KHzFrame rate : 31.250 fps (1536 spf)Compression mode : LossyStream size : 159 MiB (2%)Title : DVOLanguage : RussianDefault : YesForced : No
    Audio #2ID : 3Format : AC-3Format/Info : Audio Coding 3Mode extension : CM (complete main)Format settings, Endianness : BigCodec ID : A_AC3Duration : 1h 55mnBit rate mode : ConstantBit rate : 192 KbpsChannel(s) : 2 channelsChannel positions : Front: L RSampling rate : 48.0 KHzFrame rate : 31.250 fps (1536 spf)Compression mode : LossyStream size : 159 MiB (2%)Language : ItalianDefault : NoForced : No
    Text #1ID : 4Format : UTF-8Codec ID : S_TEXT/UTF8Codec ID/Info : UTF-8 Plain TextDuration : 1h 54mnBit rate : 77 bpsCount of elements : 946Stream size : 64.7 KiB (0%)Language : RussianDefault : NoForced : No
    Text #2ID : 5Format : UTF-8Codec ID : S_TEXT/UTF8Codec ID/Info : UTF-8 Plain TextDuration : 1h 53mnBit rate : 39 bpsCount of elements : 1065Stream size : 32.7 KiB (0%)Language : EnglishDefault : NoForced : No
    Menu00:00:00.000 : en:00:00:00.00000:11:48.249 : en:00:11:48.24900:18:56.177 : en:00:18:56.17700:27:10.087 : en:00:27:10.08700:38:14.667 : en:00:38:14.66700:51:11.485 : en:00:51:11.48500:58:07.275 : en:00:58:07.27501:09:22.116 : en:01:09:22.11601:18:22.823 : en:01:18:22.82301:29:18.770 : en:01:29:18.77001:40:59.512 : en:01:40:59.51201:53:43.316 : en:01:53:43.316
    Скриншоты

    Зеркало


    Цитата:
    Цитата:

    • Русская дорога и субтитры с этого DVD.
    • Сохранены оригинальные чаптеры как на Blu-ray.
    Скачать .torrent

    Скачать торрент-файл бесплатно и на максимальной скорости!

    Как скачивать? · Что такое торрент? · Рейтинг и ограничения

    !ВНИМАНИЕ!
    Сайт не распространяет и не хранит электронные версии произведений, а занимается лишь лишь предоставлением доступа к создаваемому пользователями каталогу ссылок на торрент-файлы, которые содержат только списки хеш-сумм, убедительная просьба с жалобами обращаться напрямую к пользователю. Файлы для обмена на трекере предоставлены пользователями сайта, и администрация не несёт ответственности за их содержание. Просьба не заливать файлы, защищенные авторскими правами, а также файлы нелегального содержания!


    _________________
    [Профиль] [ЛС]
    Показать сообщения:    
    Ответить на тему

    Текущее время: Сегодня, в 16:03

    Часовой пояс: GMT + 2



    Вы не можете начинать темы
    Вы не можете отвечать на сообщения
    Вы не можете редактировать свои сообщения
    Вы не можете удалять свои сообщения
    Вы не можете голосовать в опросах
    Вы не можете прикреплять файлы к сообщениям
    Вы не можете скачивать файлы