BitTorrentTracker PerecTracker.org
BitTorrentTracker PerecTracker.org
    
Регистрация  ·  Вход
 
 · 
Забыли пароль?

  • Невидимка / Невидимый мальчик / Il ragazzo invisibile (Габриэле Сальваторес / Gabriele Salvatores) [2014, Италия, фэнтези, приключения, DVDRip] + Sub Rus + Original Ita

    Ответить на тему
     
    Автор Сообщение

    Light

    Создавать темы 04-Май-2016 16:51

           

    [Цитировать]

    Невидимка / Невидимый мальчик / Il ragazzo invisibile
    Страна: Италия
    Жанр: фэнтези, приключения
    Год выпуска: 2014
    Продолжительность: 01:41:25
    Перевод: Субтитры (М.Васильев)
    Cубтитры: русские
    Оригинальная аудиодорожка: итальянский
    Режиссер: Габриэле Сальваторес / Gabriele Salvatores
    В ролях: Людовико Джирарделло, Валериа Голино, Фабрицио Бентивольо, Кристо Живков, Ноа Затта, Рикардо Гаспарини, Ксения Раппопорт
    Описание: Микеле — обычный школьник...ну, был обычным, пока не выяснил, что он может становиться невидимым и силой мысли двигать предметы. Пытаясь понять, откуда у него такие способности, он узнает, что он сам и его родители - «сверхлюди» - результат экспериментов, которые проводят на секретной базе в Сибири коварные военные с целью создать армию из суперлюдей. Но это еще не все. Оказывается, за Микеле охотится целая толпа шпионов, которые должны похитить его и доставить в Россию для продолжения экспериментов...
    Доп. информация:
    Экранизация графического романа Джузеппе Камунколи.
    Картина вошла в десятку самых успешных фильмов в итальянском прокате в 2014 году.
    Осенью 2015 начались сьемки сиквела, который ожидается на экранах в декабре 2016.
    Награды:
    премия Итальянской Киноакадемии в категории «лучшие спецэффекты»
    премия Европейской Киноакадемии в категории «лучший детский/молодежный фильм года»
    Сэмпл
    IMDB
    Качество видео: DVDRip
    Формат видео: AVI
    Видео: 1501 Kbps, 720x300 (2.40:1), 23 976 fps, XviD
    Аудио: 448 Kbps, 48.0 KHz, 16 bits, 6 ch, AC 3
    Формат субтитров: softsub (SRT)

    MediaInfo

    General
    Complete name : E:\Невидимка2014.avi
    Format : AVI
    Format/Info : Audio Video Interleave
    File size : 1.39 GiB
    Duration : 1h 41mn
    Overall bit rate : 1 959 Kbps
    Writing application : VirtualDubMod 1.5.10.2 (build 2540/release)
    Writing library : VirtualDubMod build 2540/release
    Video
    ID : 0
    Format : MPEG-4 Visual
    Format profile : Simple@L3
    Format settings, BVOP : No
    Format settings, QPel : No
    Format settings, GMC : No warppoints
    Format settings, Matrix : Default (H.263)
    Codec ID : XVID
    Codec ID/Hint : XviD
    Duration : 1h 41mn
    Bit rate : 1 501 Kbps
    Width : 720 pixels
    Height : 300 pixels
    Display aspect ratio : 2.40:1
    Frame rate : 23.976 fps
    Color space : YUV
    Chroma subsampling : 4:2:0
    Bit depth : 8 bits
    Scan type : Progressive
    Compression mode : Lossy
    Bits/(Pixel*Frame) : 0.290
    Stream size : 1.06 GiB (77%)
    Writing library : XviD 64
    Audio
    ID : 1
    Format : AC-3
    Format/Info : Audio Coding 3
    Mode extension : CM (complete main)
    Format settings, Endianness : Big
    Codec ID : 2000
    Duration : 1h 41mn
    Bit rate mode : Constant
    Bit rate : 448 Kbps
    Channel(s) : 6 channels
    Channel positions : Front: L C R, Side: L R, LFE
    Sampling rate : 48.0 KHz
    Bit depth : 16 bits
    Compression mode : Lossy
    Stream size : 325 MiB (23%)
    Alignment : Split accross interleaves
    Interleave, duration : 42 ms (1.00 video frame)
    Interleave, preload duration : 500 ms

    Скриншот c названием фильма

    Скриншоты





    Титры

    1
    00:02:20,308 --> 00:02:22,435
    Дайте ему отдохнуть.
    2
    00:02:23,811 --> 00:02:26,939
    Он начал работать на нас.
    3
    00:02:38,201 --> 00:02:39,786
    Ну, что?
    4
    00:02:40,578 --> 00:02:42,413
    Выдохся.
    5
    00:02:53,591 --> 00:02:55,843
    И где же ты?
    6
    00:03:52,525 --> 00:03:55,278
    А во сколько начало?
    7
    00:03:57,530 --> 00:03:59,407
    Смотри, куда идешь!
    8
    00:04:29,187 --> 00:04:33,816
    - Чего тебе?
    - Какой у тебя будет костюм?
    9
    00:04:34,901 --> 00:04:36,819
    Микеле!
    Телефон!
    10
    00:04:37,945 --> 00:04:41,073
    Хочешь остаться на второй год,
    как Касадио?
    11
    00:04:41,324 --> 00:04:43,326
    Я тут уже 3 год.
    12
    00:04:45,203 --> 00:04:46,579
    Директор!
    13
    00:04:47,663 --> 00:04:50,416
    Представитель полиции
    должен сделать обьявление.
    14
    00:04:51,834 --> 00:04:54,086
    Садитесь.
    15
    00:04:55,838 --> 00:04:57,590
    Это быстро...
    16
    00:04:59,717 --> 00:05:03,429
    Кто-нибудь из вас
    видел Мартина Брека?
    17
    00:05:04,680 --> 00:05:06,557
    А что с ним?
    18
    00:05:06,724 --> 00:05:08,476
    Он задрочился до смерти.
    19
    00:05:10,353 --> 00:05:12,480
    Он исчез 2 дня назад.
    20
    00:05:13,606 --> 00:05:16,108
    Утром мама зашла
    в его комнату,
    21
    00:05:16,734 --> 00:05:18,361
    а его не было.
    22
    00:05:19,111 --> 00:05:20,863
    Он не ночевал дома.
    23
    00:05:21,239 --> 00:05:25,368
    Если вы знаете, где он,
    скажите ему, чтобы шел домой.
    24
    00:05:28,621 --> 00:05:30,373
    Пока.
    25
    00:05:30,498 --> 00:05:31,999
    Инспектор.
    Скачать .torrent

    Скачать торрент-файл бесплатно и на максимальной скорости!

    Как скачивать? · Что такое торрент? · Рейтинг и ограничения

    !ВНИМАНИЕ!
    Сайт не распространяет и не хранит электронные версии произведений, а занимается лишь лишь предоставлением доступа к создаваемому пользователями каталогу ссылок на торрент-файлы, которые содержат только списки хеш-сумм, убедительная просьба с жалобами обращаться напрямую к пользователю. Файлы для обмена на трекере предоставлены пользователями сайта, и администрация не несёт ответственности за их содержание. Просьба не заливать файлы, защищенные авторскими правами, а также файлы нелегального содержания!


    _________________
    [Профиль] [ЛС]
    Показать сообщения:    
    Ответить на тему

    Текущее время: Сегодня, в 16:26

    Часовой пояс: GMT + 2



    Вы не можете начинать темы
    Вы не можете отвечать на сообщения
    Вы не можете редактировать свои сообщения
    Вы не можете удалять свои сообщения
    Вы не можете голосовать в опросах
    Вы не можете прикреплять файлы к сообщениям
    Вы не можете скачивать файлы