BitTorrentTracker PerecTracker.org
BitTorrentTracker PerecTracker.org
    
Регистрация  ·  Вход
 
 · 
Забыли пароль?

  • Хеллбой: Кровь и металл / Hellboy Animated: Blood and Iron (Фил Вайнштейн / Phil Weinstein) [2007, Мультфильм, боевик, приключения, HDRip] MVO + AVO (Дольский) + Original Eng + Sub (Rus, Eng)

    Ответить на тему
     
    Автор Сообщение

    Flirldrerve

    Создавать темы 04-Май-2016 12:46

           

    [Цитировать]

    Хеллбой: Кровь и металл / Hellboy Animated: Blood and Iron--Страна: США
    Жанр: Мультфильм, боевик, приключения
    Продолжительность: 01:16:14
    Год выпуска: 2007
    -Перевод: Профессиональный (многоголосый, закадровый) | R5
    Перевод 2: Авторский (одноголосый, закадровый) | Андрей Дольский
    Субтитры: русские + английские (полные, внешние, srt)
    Режиссёр: Фил Вайнштейн / Phil Weinstein
    -Описание:
    В 1939, молодой Профессор Бруттенхольм уничтожил вампиршу, которая купалась в крови невинных, чтобы оставаться молодой. Теперь кто-то в провинциальных областях штата, Нью-Йорк пытается возвратить ее, и пожилой Профессор Брум, решает исследовать это самолично.
    -Релиз групп All Films, RG Torrents.ru и RG Мультфильмы-Сэмпл: https://www.sendspace.com/file/jfjm6j-Качество: HDRip - Исходник (Спасибо саша крутой 128)
    Формат: AVI
    Видео: 704x400 (1.76:1), 23.976 fps, XviD MPEG-4 ~1785 kbps avg, 0.26 bit/pixel
    Аудио: 48 kHz, AC3 Dolby Digital, 2/0 (L,R) ch, ~192 kbps | MVO
    Аудио 2: 48 kHz, AC3 Dolby Digital, 2/0 (L,R) ch, ~192 kbps | AVO
    Аудио 3: 48 kHz, AC3 Dolby Digital, 3/2 (L,C,R,l,r) + LFE ch, ~448 kbps | Eng
    -

    Отчёт MediaInfo

    General
    Complete name : C:\Users\Максим\Desktop\Hellboy.Blood.and.Iron.HDRip.polkera\Hellboy.Blood.and.Iron.HDRip.polkera.avi
    Format : AVI
    Format/Info : Audio Video Interleave
    File size : 1.40 GiB
    Duration : 1h 16mn
    Overall bit rate : 2 638 Kbps
    Writing application : VirtualDubMod 1.5.10.3 | www.virtualdub-fr.org || (build 2550/release)
    Writing library : VirtualDubMod build 2550/release
    Video
    Format : MPEG-4 Visual
    Format profile : Streaming Video@L1
    Format settings, BVOP : Yes
    Format settings, QPel : No
    Format settings, GMC : No warppoints
    Format settings, Matrix : Custom
    Codec ID : XVID
    Codec ID/Hint : XviD
    Duration : 1h 16mn
    Bit rate : 1 787 Kbps
    Width : 704 pixels
    Height : 400 pixels
    Display aspect ratio : 16/9
    Frame rate : 23.976 fps
    Resolution : 24 bits
    Colorimetry : 4:2:0
    Scan type : Progressive
    Bits/(Pixel*Frame) : 0.265
    Stream size : 975 MiB (68%)
    Writing library : XviD 73
    Audio #1
    Format : AC-3
    Format/Info : Audio Coding 3
    Codec ID : 2000
    Duration : 1h 16mn
    Bit rate mode : Constant
    Bit rate : 192 Kbps
    Channel(s) : 2 channels
    Channel positions : L R
    Sampling rate : 48.0 KHz
    Stream size : 105 MiB (7%)
    Alignment : Split accross interleaves
    Interleave, duration : 42 ms (1.00 video frame)
    Interleave, preload duration : 500 ms
    Audio #2
    Format : AC-3
    Format/Info : Audio Coding 3
    Codec ID : 2000
    Duration : 1h 16mn
    Bit rate mode : Constant
    Bit rate : 192 Kbps
    Channel(s) : 2 channels
    Channel positions : L R
    Sampling rate : 48.0 KHz
    Stream size : 105 MiB (7%)
    Alignment : Split accross interleaves
    Interleave, duration : 42 ms (1.00 video frame)
    Interleave, preload duration : 500 ms
    Audio #3
    Format : AC-3
    Format/Info : Audio Coding 3
    Codec ID : 2000
    Duration : 1h 16mn
    Bit rate mode : Constant
    Bit rate : 448 Kbps
    Channel(s) : 6 channels
    Channel positions : Front: L C R, Surround: L R, LFE
    Sampling rate : 48.0 KHz
    Stream size : 244 MiB (17%)
    Alignment : Split accross interleaves
    Interleave, duration : 42 ms (1.00 video frame)
    Interleave, preload duration : 500 ms

    -

    Скриншоты

    -
    |
    |
    Скачать .torrent

    Скачать торрент-файл бесплатно и на максимальной скорости!

    Как скачивать? · Что такое торрент? · Рейтинг и ограничения

    !ВНИМАНИЕ!
    Сайт не распространяет и не хранит электронные версии произведений, а занимается лишь лишь предоставлением доступа к создаваемому пользователями каталогу ссылок на торрент-файлы, которые содержат только списки хеш-сумм, убедительная просьба с жалобами обращаться напрямую к пользователю. Файлы для обмена на трекере предоставлены пользователями сайта, и администрация не несёт ответственности за их содержание. Просьба не заливать файлы, защищенные авторскими правами, а также файлы нелегального содержания!


    _________________
    [Профиль] [ЛС]
    Показать сообщения:    
    Ответить на тему

    Текущее время: Сегодня, в 18:30

    Часовой пояс: GMT + 2



    Вы не можете начинать темы
    Вы не можете отвечать на сообщения
    Вы не можете редактировать свои сообщения
    Вы не можете удалять свои сообщения
    Вы не можете голосовать в опросах
    Вы не можете прикреплять файлы к сообщениям
    Вы не можете скачивать файлы