BitTorrentTracker PerecTracker.org
BitTorrentTracker PerecTracker.org
    
Регистрация  ·  Вход
 
 · 
Забыли пароль?

  • Дурак (Юрий Быков) [2014, Социальная драма, BDRip]

    Ответить на тему
     
    Автор Сообщение

    Flirldrerve

    Создавать темы 03-Май-2016 20:25

           

    [Цитировать]

    Дурак
    Жанр: Социальная драма
    Год выпуска: 2014
    Продолжительность: 02:00:52
    Режиссёр: Юрий Быков
    В ролях: Артём Быстров, Наталья Суркова, Юрий Цурило, Борис Невзоров, Кирилл Полухин, Александр Коршунов, Ольга Самошина, Дарья Мороз, Сергей Арцибашев, Елена Панова, Дмитрий Куличков, Илья Исаев, Максим Пинскер, Любовь Руденко, Ирина Низина, Гордей Кобзев, Пётр Баранчеев, и др.
    Описание: Никитин Дима работает сантехником, и заочно учится в архитектурном институте... Однажды вместе с дежурной бригадой приехав на вызов в общежитие, расположенное на окраине города, он обнаруживает, что по всему зданию пошла трещина, и здание может рухнуть в любую минуту... Осознав, что провести эвакуацию и расселение жильцов, численностью около 800 человек, невозможно без согласования с городской администрацией, Никитин Дима решает сделать всё возможное, и призывает её в помощники... Однако, глубоко погрязшая в коррупции городская администрация не желает ничего предпринимать...
    За что боролся, на то и напоролся, хорошо что в живых удалось остаться...

    Качество видео: BDRip
    Формат видео: AVI
    Видео: XviD 67 MPEG-4, 720x304 (2.35:1) 24.000 fps, ~733 kbps avg, 0.140 bit/pixel
    Аудио: MP-3 Joint stereo, CBR 128 kbps 2 ch, 48.0 KHz

    MediaInfo

    ОбщееПолное имя : V:\Дурак_2014_BDRip_[perectracker.org].aviФормат : AVIФормат/Информация : Audio Video InterleaveРазмер файла : 753 МбайтПродолжительность : 2 ч. 0 м.Общий поток : 871 Кбит/секНазвание фильма : Дурак_2014_BDRip_[perectracker.org]Режиссёр : OGORODNIKOFFFЖанр : Социальная драмаПрограмма кодирования : VirtualDubMod 1.5.10.3 | www.virtualdub-fr.org || (build 2550/release)Формат оригинала/Имя : Наше киноПравообладатель : [url=profile.php?mode=viewprofile&u=38116300]http://perectracker.org/profile.php?mode=viewprofil...[/url]Примечание : Рип подготовлен 3 мая 2016 года
    ВидеоИдентификатор : 0Формат : MPEG-4 VisualПрофиль формата : Advanced Simple@L5Параметр BVOP формата : 1Параметр QPel формата : НетПараметр GMC формата : Без точки переходаПараметр матрицы формата : Default (H.263)Идентификатор кодека : DX50Идентификатор кодека/Подсказка : DivX 5Продолжительность : 2 ч. 0 м.Битрейт : 733 Кбит/секШирина : 720 пикселейВысота : 304 пикселяСоотношение сторон : 2,35:1Частота кадров : 24,000 кадра/секЦветовое пространство : YUVСубдискретизация насыщенности : 4:2:0Битовая глубина : 8 битТип развёртки : ПрогрессивнаяМетод сжатия : С потерямиБит/(Пиксели*Кадры) : 0.140Размер потока : 634 Мбайт (84%)Библиотека кодирования : XviD 67
    АудиоИдентификатор : 1Формат : MPEG AudioВерсия формата : Version 1Профиль формата : Layer 3Режим : Joint stereoРасширение режима : MS StereoИдентификатор кодека : 55Идентификатор кодека/Подсказка : MP3Продолжительность : 2 ч. 0 м.Вид битрейта : ПостоянныйБитрейт : 128 Кбит/секКаналы : 2 каналаЧастота : 48,0 КГцМетод сжатия : С потерямиРазмер потока : 111 Мбайт (15%)Выравнивание : Соединение по промежуткамПродолжительность промежутка : 42 мс. (1,00 видеокадр)Время предзагрузки промежутка : 504 мс.Библиотека кодирования : LAME3.99rНастройки программы : -m j -V 4 -q 2 -lowpass 17 -b 128

    Скриншот c названием фильма

    Скриншоты

    Время раздачи - по возможности.
    Скачать .torrent

    Скачать торрент-файл бесплатно и на максимальной скорости!

    Как скачивать? · Что такое торрент? · Рейтинг и ограничения

    !ВНИМАНИЕ!
    Сайт не распространяет и не хранит электронные версии произведений, а занимается лишь лишь предоставлением доступа к создаваемому пользователями каталогу ссылок на торрент-файлы, которые содержат только списки хеш-сумм, убедительная просьба с жалобами обращаться напрямую к пользователю. Файлы для обмена на трекере предоставлены пользователями сайта, и администрация не несёт ответственности за их содержание. Просьба не заливать файлы, защищенные авторскими правами, а также файлы нелегального содержания!


    _________________
    [Профиль] [ЛС]
    Показать сообщения:    
    Ответить на тему

    Текущее время: Сегодня, в 11:52

    Часовой пояс: GMT + 2



    Вы не можете начинать темы
    Вы не можете отвечать на сообщения
    Вы не можете редактировать свои сообщения
    Вы не можете удалять свои сообщения
    Вы не можете голосовать в опросах
    Вы не можете прикреплять файлы к сообщениям
    Вы не можете скачивать файлы