BitTorrentTracker PerecTracker.org
BitTorrentTracker PerecTracker.org
    
Регистрация  ·  Вход
 
 · 
Забыли пароль?

  • Игра на понижение / Большое сокращение / The Big Short (Адам МакКей / Adam McKay) [2015 г., США, драма, комедия, биография, BDRip 1080p] Dub + Ukr + Original Eng + Sub (Rus, Ukr, Eng)

    Ответить на тему
     
    Автор Сообщение

    Light

    Создавать темы 03-Май-2016 20:25

           

    [Цитировать]

    -Игра на понижение / Большое сокращение / The Big Short«Неправдоподобная, но правдивая история»Страна: США
    Студия: Plan B Entertainment, Regency Enterprises
    Жанр: драма, комедия, биография
    Год выпуска: 2015
    Продолжительность: 02:10:15-Перевод: Профессиональный (полное дублирование) BD EUR
    Оригинальная аудиодорожка: английская
    Cубтитры: русские, украинские, английские
    Режиссер: Адам МакКей / Adam McKay
    В ролях: Кристиан Бэйл, Стив Карелл, Райан Гослинг, Брэд Питт, Мелисса Лео, Хамиш Линклэйтер, Джон Магаро, Рейф Сполл, Джереми Стронг, Мариса Томей, Финн Уиттрок, Стэнли Вонг, Байрон Манн, Трэйси Леттс, Карен Гиллан, Селена Гомес, Макс Гринфилд, Марго Робби, Руди Айзенцопф, Кэйси Гров
    Описание: Когда речь идет о деньгах, совесть молчит. А уж если речь об огромных деньгах!.. Это основанная на реальных событиях история нескольких провидцев, которые независимо друг от друга предсказали мировой экономический кризис 2008 года задолго до того, как о нем зашептались в кулуарах на Уолл-стрит. И предсказав, стали на нем зарабатывать. Сами того не желая.- Премия «Оскар» за Лучший адаптированный сценарий, 2016г.
    Сэмпл: скачать-Релиз от -
    Автор рипа: Elheym
    Качество: BDRip 1080p (источник: / Blu-ray EUR [THE_BIG_SHORT_HDCLUB] / 1080p)
    Контейнер: MKV
    Видео: 1920x800 (2.40:1), 23.976 fps, MPEG-4 AVC, ~16100 kbps avg, 0.438 bit/pixel
    Аудио #1: Русский: AC3, 5.1, 48 kHz, ~640 Кбит/с | Профессиональный (полное дублирование) BD EUR |
    Аудио #2: Украинский: AC3, 5.1, 48 kHz, ~640 Кбит/с | Профессиональный (полное дублирование) BD EUR |
    Аудио #3: Английский: DTS, 5.1, 48 kHz, ~1509 Кбит/с | Оригинал |
    Субтитры: русские (полные: BD, Notabenoid, iTunes; форсированные), украинские (полные), английские (полные x2, SDH, SDH цветные)
    Главы: Сохранены оригинальные

    MediaInfo

    Уникальный идентификатор : 170723511801952965708526262731058933452 (0x80702701006780F59C20F399E8FB6ECC)
    Полное имя : The.Big.Short.2015.1080p.BluRay.Rus.Ukr.Eng.-HQCLUB.mkv
    Формат : Matroska
    Версия формата : Version 2
    Размер файла : 17,6 Гбайт
    Продолжительность : 2 ч. 10 м.
    Общий поток : 19,3 Мбит/сек
    Название фильма : Игра на понижение / Большое сокращение / The Big Short (2015) BDRip 1080p by Elheym [HQCLUB]
    Дата кодирования : UTC 2016-04-28 15:00:21
    Программа кодирования : mkvmerge v5.2.0 ('I can't explain') built on Dec 18 2011 18:12:03
    Библиотека кодирования : libebml v1.2.3 + libmatroska v1.3.0
    Обложка : Yes
    Attachments : cover.jpg
    Видео
    Идентификатор : 1
    Формат : AVC
    Формат/Информация : Advanced Video Codec
    Профиль формата : High@L4.1
    Параметр CABAC формата : Да
    Параметр ReFrames формата : 4 кадра
    Идентификатор кодека : V_MPEG4/ISO/AVC
    Продолжительность : 2 ч. 10 м.
    Битрейт : 16,1 Мбит/сек
    Ширина : 1920 пикселей
    Высота : 800 пикселей
    Соотношение сторон : 2,40:1
    Режим частоты кадров : Постоянный
    Частота кадров : 23,976 (24000/1001) кадра/сек
    Цветовое пространство : YUV
    Субдискретизация насыщенности : 4:2:0
    Битовая глубина : 8 бит
    Тип развёртки : Прогрессивная
    Бит/(Пиксели*Кадры) : 0.438
    Размер потока : 14,7 Гбайт (84%)
    Заголовок : Игра на понижение / Большое сокращение / The Big Short (2015) BDRip 1080p by Elheym [HQCLUB]
    Библиотека кодирования : x264 core 148 r2665+53 6629127 t_mod_Custom [8-bit@all X86_64]
    Настройки программы : cabac=1 / ref=4 / deblock=1:-3:-2 / analyse=0x3:0x113 / me=umh / subme=11 / psy=1 / fade_compensate=0.00 / psy_rd=1.20:0.00 / mixed_ref=1 / me_range=32 / chroma_me=1 / trellis=2 / 8x8dct=1 / cqm=0 / deadzone=21,11 / fast_pskip=0 / chroma_qp_offset=-2 / threads=6 / lookahead_threads=2 / sliced_threads=0 / nr=0 / decimate=0 / interlaced=0 / bluray_compat=0 / constrained_intra=0 / fgo=0 / bframes=14 / b_pyramid=2 / b_adapt=2 / b_bias=0 / direct=3 / weightb=1 / open_gop=0 / weightp=2 / keyint=240 / keyint_min=23 / scenecut=40 / intra_refresh=0 / rc_lookahead=80 / rc=crf / mbtree=0 / crf=20.0000 / qcomp=0.70 / qpmin=0:0:0 / qpmax=69:69:69 / qpstep=4 / vbv_maxrate=50000 / vbv_bufsize=62500 / crf_max=0.0 / nal_hrd=none / filler=0 / ip_ratio=1.40 / pb_ratio=1.30 / aq=2:1.10 / aq-sensitivity=10.00 / aq-factor=1.00:1.00:1.00 / aq2=0 / aq3=3:[0.50:0.50]:[0.50:0.50]:[0.50:0.50]:[0.50:0.50] / aq3-sensitivity=10.00 / aq3-factor=[1.00:1.00]:[1.00:1.00]:[1.00:1.00] / aq3-boundary=205:56:9
    Язык : English
    Default : Да
    Forced : Нет
    Аудио #1
    Идентификатор : 2
    Формат : AC-3
    Формат/Информация : Audio Coding 3
    Расширение режима : CM (complete main)
    Параметр Endianness формата : Big
    Идентификатор кодека : A_AC3
    Продолжительность : 2 ч. 10 м.
    Вид битрейта : Постоянный
    Битрейт : 640 Кбит/сек
    Каналы : 6 каналов
    Расположение каналов : Front: L C R, Side: L R, LFE
    Частота : 48,0 КГц
    Частота кадров : 31,250 кадров/сек (1536 spf)
    Метод сжатия : С потерями
    Размер потока : 598 Мбайт (3%)
    Заголовок : AC3 5.1 @ 640 kbps - Dub, BD EUR
    Язык : Russian
    Default : Нет
    Forced : Нет
    Аудио #2
    Идентификатор : 3
    Формат : AC-3
    Формат/Информация : Audio Coding 3
    Расширение режима : CM (complete main)
    Параметр Endianness формата : Big
    Идентификатор кодека : A_AC3
    Продолжительность : 2 ч. 10 м.
    Вид битрейта : Постоянный
    Битрейт : 640 Кбит/сек
    Каналы : 6 каналов
    Расположение каналов : Front: L C R, Side: L R, LFE
    Частота : 48,0 КГц
    Частота кадров : 31,250 кадров/сек (1536 spf)
    Метод сжатия : С потерями
    Размер потока : 598 Мбайт (3%)
    Заголовок : AC3 5.1 @ 640 kbps - Dub, BD EUR
    Язык : Ukrainian
    Default : Нет
    Forced : Нет
    Аудио #3
    Идентификатор : 4
    Формат : DTS
    Формат/Информация : Digital Theater Systems
    Режим : 16
    Параметр Endianness формата : Big
    Идентификатор кодека : A_DTS
    Продолжительность : 2 ч. 10 м.
    Вид битрейта : Постоянный
    Битрейт : 1509 Кбит/сек
    Каналы : 6 каналов
    Расположение каналов : Front: L C R, Side: L R, LFE
    Частота : 48,0 КГц
    Частота кадров : 93,750 кадра/сек (512 spf)
    Битовая глубина : 24 бит
    Метод сжатия : С потерями
    Размер потока : 1,38 Гбайт (8%)
    Заголовок : DTS 5.1 @ 1509 kbps - Original
    Язык : English
    Default : Нет
    Forced : Нет
    Текст #1
    Идентификатор : 5
    Формат : UTF-8
    Идентификатор кодека : S_TEXT/UTF8
    Идентификатор кодека/Информация : UTF-8 Plain Text
    Заголовок : Full, BD
    Язык : Russian
    Default : Нет
    Forced : Нет
    Текст #2
    Идентификатор : 6
    Формат : UTF-8
    Идентификатор кодека : S_TEXT/UTF8
    Идентификатор кодека/Информация : UTF-8 Plain Text
    Заголовок : Full, Notabenoid [Uncensored]
    Язык : Russian
    Default : Нет
    Forced : Нет
    Текст #3
    Идентификатор : 7
    Формат : UTF-8
    Идентификатор кодека : S_TEXT/UTF8
    Идентификатор кодека/Информация : UTF-8 Plain Text
    Заголовок : Full, ITUNES
    Язык : Russian
    Default : Нет
    Forced : Нет
    Текст #4
    Идентификатор : 8
    Формат : UTF-8
    Идентификатор кодека : S_TEXT/UTF8
    Идентификатор кодека/Информация : UTF-8 Plain Text
    Заголовок : Forced
    Язык : Russian
    Default : Да
    Forced : Нет
    Текст #5
    Идентификатор : 9
    Формат : UTF-8
    Идентификатор кодека : S_TEXT/UTF8
    Идентификатор кодека/Информация : UTF-8 Plain Text
    Заголовок : Full, BD
    Язык : Ukrainian
    Default : Нет
    Forced : Нет
    Текст #6
    Идентификатор : 10
    Формат : UTF-8
    Идентификатор кодека : S_TEXT/UTF8
    Идентификатор кодека/Информация : UTF-8 Plain Text
    Заголовок : Full, V1
    Язык : English
    Default : Нет
    Forced : Нет
    Текст #7
    Идентификатор : 11
    Формат : UTF-8
    Идентификатор кодека : S_TEXT/UTF8
    Идентификатор кодека/Информация : UTF-8 Plain Text
    Заголовок : Full, V2
    Язык : English
    Default : Нет
    Forced : Нет
    Текст #8
    Идентификатор : 12
    Формат : UTF-8
    Идентификатор кодека : S_TEXT/UTF8
    Идентификатор кодека/Информация : UTF-8 Plain Text
    Заголовок : SDH
    Язык : English
    Default : Нет
    Forced : Нет
    Текст #9
    Идентификатор : 13
    Формат : UTF-8
    Идентификатор кодека : S_TEXT/UTF8
    Идентификатор кодека/Информация : UTF-8 Plain Text
    Заголовок : SDH Colored
    Язык : English
    Default : Нет
    Forced : Нет
    Меню
    00:00:00.000 : :Chapter 01
    00:09:24.564 : :Chapter 02
    00:15:47.571 : :Chapter 03
    00:19:03.058 : :Chapter 04
    00:25:59.516 : :Chapter 05
    00:28:49.978 : :Chapter 06
    00:37:24.242 : :Chapter 07
    00:42:54.488 : :Chapter 08
    00:49:36.682 : :Chapter 09
    00:57:01.835 : :Chapter 10
    01:02:09.892 : :Chapter 11
    01:10:52.957 : :Chapter 12
    01:17:03.243 : :Chapter 13
    01:20:57.102 : :Chapter 14
    01:29:53.221 : :Chapter 15
    01:34:37.046 : :Chapter 16
    01:41:15.903 : :Chapter 17
    01:45:30.490 : :Chapter 18
    01:49:34.651 : :Chapter 19
    01:55:16.075 : :Chapter 20
    02:03:44.500 : :Chapter 21
    02:10:15.599 : :Chapter 22

    x264 log

    x264 [info]: frame I:1093 Avg QP:17.61 size:215673
    x264 [info]: frame P:37182 Avg QP:19.12 size:117683
    x264 [info]: frame B:149118 Avg QP:20.96 size: 77511
    x264 [info]: consecutive B-frames: 1.4% 1.4% 9.9% 7.5% 13.9% 54.7% 3.9% 1.1% 1.0% 1.2% 0.7% 0.4% 0.4% 0.4% 2.0%
    x264 [info]: ref P L0: 50.0% 10.7% 26.6% 11.3% 1.3% 0.0%
    x264 [info]: ref B L0: 86.0% 11.2% 2.8%
    x264 [info]: ref B L1: 92.2% 7.8%

    Скриншоты

    Сравнения с исходником

    Источник- -Рип-
    Цитата:
    Цитата:

    • Перевод от Notabenoid доступен благодаря: den1z, victoria_vn, Dycall, tylerkeonary, xenol07, Elheym, p_zombie. Содержит нецензурную лексику!
    Скачать .torrent

    Скачать торрент-файл бесплатно и на максимальной скорости!

    Как скачивать? · Что такое торрент? · Рейтинг и ограничения

    !ВНИМАНИЕ!
    Сайт не распространяет и не хранит электронные версии произведений, а занимается лишь лишь предоставлением доступа к создаваемому пользователями каталогу ссылок на торрент-файлы, которые содержат только списки хеш-сумм, убедительная просьба с жалобами обращаться напрямую к пользователю. Файлы для обмена на трекере предоставлены пользователями сайта, и администрация не несёт ответственности за их содержание. Просьба не заливать файлы, защищенные авторскими правами, а также файлы нелегального содержания!


    _________________
    [Профиль] [ЛС]
    Показать сообщения:    
    Ответить на тему

    Текущее время: Сегодня, в 03:20

    Часовой пояс: GMT + 2



    Вы не можете начинать темы
    Вы не можете отвечать на сообщения
    Вы не можете редактировать свои сообщения
    Вы не можете удалять свои сообщения
    Вы не можете голосовать в опросах
    Вы не можете прикреплять файлы к сообщениям
    Вы не можете скачивать файлы