BitTorrentTracker PerecTracker.org
BitTorrentTracker PerecTracker.org
    
Регистрация  ·  Вход
 
 · 
Забыли пароль?

  • Истина в вине / Trees Lounge (Стив Бушеми / Steve Buscemi) [1996, США, драма, комедия, HDTV 1080i] DVO + AVO (Антон Карповский) + Original Eng + Sub Eng, Fra, Spa

    Ответить на тему
     
    Автор Сообщение

    Light

    Создавать темы 03-Май-2016 12:15

           

    [Цитировать]

    Истина в вине / Trees Lounge
    Страна: США
    Студия: Addis Wechsler Pictures, Live Entertainment, Muse Productions
    Жанр: Драма, комедия
    Год выпуска: 1996
    Продолжительность: 01:34:39
    Перевод 1: Профессиональный (двухголосый закадровый) R5
    Перевод 2: Авторский (одноголосый закадровый) Антон Карповский
    Cубтитры: английские, французские, испанские
    Оригинальная аудиодорожка: английский
    Режиссер: Стив Бушеми / Steve Buscemi
    В ролях: Стив Бушеми, Клоэ Севиньи, Марк Бун Джуниор, Энтони ЛаПалья, Элизабет Бракко, Эстер Балинт, Кэрол Кейн, Дэниэл Болдуин, Мими Роджерс, Деби Мейзар, Сеймур Кэссел, Сэмюэл Л. Джексон, Бронсон Дадли, Майкл Бушеми, Джон Вентимилья, Стивен Рандаззо, Сюзанн Шеперд, Рокетс Редглейр, Джо Лиси, Ричард Боэ, Брук Смит, Карина Финн, Майкл Стормс, Ирма Ст. Пауле, Кевин Корригэн, Аннетт Арнольд, Майкл Империоли, Даниелла Рич, Мэрилин Крис, Виктор Арнольд, Кристин Гилди, Роберта Хэнли, Ларри Джиллиард мл., Люсиан Бушеми, Бьянка Хантер, Чарли Ньюмарк, Катрин Натали
    Описание: Томми теряет все - работу, любовь, друзей, в общем, жизнь катится под откос. Единственное место, где он чувствует себя вполне сносно - это небольшой уютный местный бар. Здесь можно просто посидеть, пропуская стаканчик за стаканчиком, и жалеть себя и свою не сложившуюся жизнь. Впрочем, Томми все-таки делает попытки вернуться к нормальной жизни, но не так просто найти работу в маленьком провинциальном городке, где все его знают, и порой не с самой лучшей стороны. Совершенно случайно Томми получает место водителя фургончика, развозящего мороженое. Но с этой работой появляется и новая проблема в виде юной и соблазнительной 17-летней девчонки, напросившейся ему в помощницы…
    Дополнительная информация:
    Автор релиза - ylnian
    Заказ перевода у Антона Карповского (март 2016 г.) - ylnian
    За сборку дороги спасибо rammzez
    Русская двухголосая озвучка взята с DVD R5
    Источник - HDTV 1080i - Trees.Lounge.1996.1080i.HDTV.DD2.0.MPEG2-TrollHD


    Сэмпл: https://yadi.sk/i/WUS_Vn8LrQEkq
    Качество видео: HDTV 1080i
    Формат видео: MKV
    Видео: H.264, 1920x1080, ~15900 kbps, 29.970 fps
    Аудио 1: Русский AC3, 48000 Гц, 2ch, 192 kbps - DVO
    Аудио 2: Русский AC3, 48000 Гц, 2ch, 384 kbps - AVO
    Аудио 3: Английский AC3, 48000 Гц, 2ch, 384 kbps
    Формат субтитров: softsub (SRT)

    MediaInfo

    Общее
    Уникальный идентификатор : 193747044217056370157408476056042283415 (0x91C252CAF59B39FAB7426415573B2197)
    Полное имя : E:\Trees.Lounge.1996.HDTV.1080i-ylnian.mkv
    Формат : Matroska
    Версия формата : Version 4 / Version 2
    Размер файла : 11,2 Гбайт
    Продолжительность : 1 ч. 34 м.
    Режим общего битрейта : Переменный
    Общий поток : 16,9 Мбит/сек
    Название фильма : Trees.Lounge.1996.HDTV.1080i-ylnian
    Дата кодирования : UTC 2016-04-30 04:03:44
    Программа кодирования : mkvmerge v9.1.0 ('Little Earthquakes') 64bit
    Библиотека кодирования : libebml v1.3.3 + libmatroska v1.4.4
    Видео
    Идентификатор : 1
    Формат : MPEG Video
    Версия формата : Version 2
    Профиль формата : Main@High
    Параметр BVOP формата : Да
    Параметр матрицы формата : Выборочная
    Параметр GOP формата : M=3, N=15
    Структура изображения : Frame
    Идентификатор кодека : V_MPEG2
    Идентификатор кодека/Информация : MPEG 1 or 2 Video
    Продолжительность : 1 ч. 34 м.
    Вид битрейта : Переменный
    Битрейт : 15,9 Мбит/сек
    Максимальный битрейт : 25,0 Мбит/сек
    Ширина : 1920 пикселей
    Высота : 1080 пикселей
    Соотношение сторон : 16:9
    Режим частоты кадров : Постоянный
    Частота кадров : 29,970 (30000/1001) кадров/сек
    Цветовое пространство : YUV
    Субдискретизация насыщенности : 4:2:0
    Битовая глубина : 8 бит
    Тип развёртки : Чересстрочная
    Порядок развёртки : Верхнее поле первое
    Метод сжатия : С потерями
    Бит/(Пиксели*Кадры) : 0.256
    Временной код первого кадра : 00:00:00;00
    Оригинал временного кода : Group of pictures header
    GOP, открыто/закрыто : Открыто
    GOP, открыто/закрыто на первом кадре : Закрыто
    Размер потока : 10,5 Гбайт (94%)
    Заголовок : Trees Lounge (1996) 1080i HDTV DD2.0 MPEG2-TrollHD
    Язык : English
    Default : Да
    Forced : Да
    Аудио #1
    Идентификатор : 2
    Формат : AC-3
    Формат/Информация : Audio Coding 3
    Расширение режима : CM (complete main)
    Параметр Endianness формата : Big
    Идентификатор кодека : A_AC3
    Продолжительность : 1 ч. 34 м.
    Вид битрейта : Постоянный
    Битрейт : 192 Кбит/сек
    Каналы : 2 канала
    Расположение каналов : Front: L R
    Частота : 48,0 КГц
    Частота кадров : 31,250 кадров/сек (1536 spf)
    Метод сжатия : С потерями
    Размер потока : 130 Мбайт (1%)
    Заголовок : DVO (AC3 2.0 192 kbps)
    Язык : Russian
    Default : Да
    Forced : Да
    Аудио #2
    Идентификатор : 3
    Формат : AC-3
    Формат/Информация : Audio Coding 3
    Расширение режима : CM (complete main)
    Параметр Endianness формата : Big
    Идентификатор кодека : A_AC3
    Продолжительность : 1 ч. 34 м.
    Вид битрейта : Постоянный
    Битрейт : 384 Кбит/сек
    Каналы : 2 канала
    Расположение каналов : Front: L R
    Частота : 48,0 КГц
    Частота кадров : 31,250 кадров/сек (1536 spf)
    Метод сжатия : С потерями
    Размер потока : 260 Мбайт (2%)
    Заголовок : AVO (AC3 2.0 384 kbps)
    Язык : Russian
    Default : Нет
    Forced : Нет
    Аудио #3
    Идентификатор : 4
    Формат : AC-3
    Формат/Информация : Audio Coding 3
    Расширение режима : CM (complete main)
    Параметр Endianness формата : Big
    Идентификатор кодека : A_AC3
    Продолжительность : 1 ч. 34 м.
    Вид битрейта : Постоянный
    Битрейт : 384 Кбит/сек
    Каналы : 2 канала
    Расположение каналов : Front: L R
    Частота : 48,0 КГц
    Частота кадров : 31,250 кадров/сек (1536 spf)
    Метод сжатия : С потерями
    Размер потока : 260 Мбайт (2%)
    Заголовок : AC3 2.0 384 kbps
    Язык : English
    Default : Нет
    Forced : Нет
    Текст #1
    Идентификатор : 5
    Формат : UTF-8
    Идентификатор кодека : S_TEXT/UTF8
    Идентификатор кодека/Информация : UTF-8 Plain Text
    Продолжительность : 1 ч. 28 м.
    Битрейт : 72 бит/сек
    Count of elements : 1276
    Размер потока : 47,0 Кбайт (0%)
    Язык : English
    Default : Нет
    Forced : Нет
    Текст #2
    Идентификатор : 6
    Формат : UTF-8
    Идентификатор кодека : S_TEXT/UTF8
    Идентификатор кодека/Информация : UTF-8 Plain Text
    Продолжительность : 1 ч. 27 м.
    Битрейт : 62 бит/сек
    Count of elements : 1293
    Размер потока : 40,5 Кбайт (0%)
    Язык : French
    Default : Нет
    Forced : Нет
    Текст #3
    Идентификатор : 7
    Формат : UTF-8
    Идентификатор кодека : S_TEXT/UTF8
    Идентификатор кодека/Информация : UTF-8 Plain Text
    Продолжительность : 1 ч. 27 м.
    Битрейт : 52 бит/сек
    Count of elements : 1299
    Размер потока : 33,6 Кбайт (0%)
    Язык : Spanish
    Default : Нет
    Forced : Нет

    Скриншот c названием фильма

    Скриншоты

    Скачать .torrent

    Скачать торрент-файл бесплатно и на максимальной скорости!

    Как скачивать? · Что такое торрент? · Рейтинг и ограничения

    !ВНИМАНИЕ!
    Сайт не распространяет и не хранит электронные версии произведений, а занимается лишь лишь предоставлением доступа к создаваемому пользователями каталогу ссылок на торрент-файлы, которые содержат только списки хеш-сумм, убедительная просьба с жалобами обращаться напрямую к пользователю. Файлы для обмена на трекере предоставлены пользователями сайта, и администрация не несёт ответственности за их содержание. Просьба не заливать файлы, защищенные авторскими правами, а также файлы нелегального содержания!


    _________________
    [Профиль] [ЛС]
    Показать сообщения:    
    Ответить на тему

    Текущее время: Сегодня, в 12:12

    Часовой пояс: GMT + 2



    Вы не можете начинать темы
    Вы не можете отвечать на сообщения
    Вы не можете редактировать свои сообщения
    Вы не можете удалять свои сообщения
    Вы не можете голосовать в опросах
    Вы не можете прикреплять файлы к сообщениям
    Вы не можете скачивать файлы